BBC: Чудеса природы / The Greatest Natural Wonders of the World (сэр Дэвид Аттенборо / Sir David Attenborough ) [2002, научно-популярный фильм, DVDRip] VO (ViruseProject) :: Ивановский Торрент трекер
Важное объявление!
У Нас Все раздачи мультитрекерные, при нуле пиров в релизах, можете смело вставать на закачку!
Статистика раздачи
Размер:     |    Зарегистрирован:     |    Скачан:     |   
Нет
 
     
 
 
Автор Сообщение

HUNTER

Стаж:
4 года 11 месяцев
Сообщений:
66098

Репутация: 101

[+] [-]
Вне форума [Профиль] [ЛС]

BBC: Чудеса природы / The Greatest Natural Wonders of the World
Дата/Год выпуска: 2002
Страна: Великобритания
Жанр: научно-популярный фильм
Продолжительность: 00:57:58
Перевод: Одноголосый закадровый ViruseProject
Русские субтитры: нет
Оригинальная аудиодорожка: нет
Режиссер: сэр Дэвид Аттенборо
Телеканал: ВВС
Описание: На протяжении многих миллионов лет поверхность планеты менялась под влиянием времени и климатических условий. Все, что мы теперь видим вокруг себя - результат бесконечной и необратимой трансформации Земли. Этот документальный фильм сэра Дэвида Аттенборо расскажет нам о самых прекрасных и удивительных уголках нашей планеты.
Высочайшее операторское мастерство, а так же потрясающие ландшафтные перспективы предоставляют уникальную возможность полюбоваться уникальными творениями природы. Горы, каньоны, долины, пещеры, реки и водопады - на каждом континенте есть свои неповторимые заповедные места.



Закадровое озвучание: Владислав Данилов
Перевод: КАЙ2010
Сведение звука: viruse (Виталий Емельянов)
Сэмпл: http://multi-up.com/989707
качество: DVDRip
формат: AVI
Видео: 672x384 (1.75:1), 25 fps, XviD 1.2 beta 1 (build 43) ~1594 kbps avg, 0.25 bit/pixel
Аудио: 48 kHz, MPEG Layer 3, 2 ch, ~192.00 kbps avg

MediaInfo

D:\ОЗВУЧКА\ВЛАД\BBC.Great.Natural.Wonders.of.the.World.2002.ViruseProject.avi General Complete name : D:\ОЗВУЧКА\ВЛАД\BBC.Great.Natural.Wonders.of.the.World.2002.ViruseProject.avi Format : AVI Format/Info : Audio Video Interleave File size : 745 MiB Duration : 57mn 58s Overall bit rate : 1 797 Kbps Writing application : VirtualDubMod 1.5.10.2 (build 2540/release) Writing library : VirtualDubMod build 2540/release Video #0 ID : 0 Format : MPEG-4 Visual Format profile : Advanced Simple@L5 Format settings, BVOP : 1 Format settings, QPel : No Format settings, GMC : No warppoints Format settings, Matrix : Custom Codec ID : XVID Codec ID/Hint : XviD Duration : 57mn 58s Bit rate : 1 595 Kbps Width : 672 pixels Height : 384 pixels Display aspect ratio : 16:9 Frame rate : 25.000 fps Color space : YUV Chroma subsampling : 4:2:0 Bit depth : 8 bits Scan type : Progressive Compression mode : Lossy Bits/(Pixel*Frame) : 0.247 Stream size : 661 MiB (89%) Writing library : XviD 1.2.0SMP (UTC 2006-01-08) Audio #1 ID : 1 Format : MPEG Audio Format version : Version 1 Format profile : Layer 3 Mode : Joint stereo Mode extension : MS Stereo Codec ID : 55 Codec ID/Hint : MP3 Duration : 57mn 58s Bit rate mode : Constant Bit rate : 192 Kbps Channel count : 2 channels Sampling rate : 48.0 KHz Compression mode : Lossy Stream size : 79.6 MiB (11%) Alignment : Aligned on interleaves Interleave, duration : 40 ms (1.00 video frame) Interleave, preload duration : 504 ms

Скриншоты


_________________
Показать сообщения:    

Текущее время: Сегодня 07:24

Часовой пояс: GMT



Вы не можете начинать темы
Вы не можете отвечать на сообщения
Вы не можете редактировать свои сообщения
Вы не можете удалять свои сообщения
Вы не можете голосовать в опросах
Вы не можете прикреплять файлы к сообщениям
Вы не можете скачивать файлы