Ивановский Торрент трекер
Яндекс.Погода
 

[Цитировать]
HUNTER

BBC. Хлоп! Наука о пузырях / Pop! The Science of Bubbles
Дата/Год выпуска: 2013
Страна: Великобритания, BBC, Furnace
Жанр: Документальный, научно-познавательный
Продолжительность: 00:58:55
Перевод: Профессиональный (дублированный)
Русские субтитры: нет
Оригинальная аудиодорожка: нет
Режиссер: Пауль Сен / Paul Sen
Описание: Пузыри. Для большинства людей - это всего лишь детская забава. Но для науки - это мощнейший инструмент: они объясняют, как живет наша планета, как устроена солнечная система, как работает световая волна. Они помогают океану дышать! Влияют на поведение животных. Создают вкус шампанского... Добро пожаловать в мир пузырей!
Сэмпл: http://sendfile.su/1025448
качество: SATRip
формат: AVI
Видео: Xvid, 720x400, 25fps, 1 699 Kbps
Аудио: AC3, 48000Hz, stereo, 192kbps

MediaInfo

C:\Users\Dmitriy\Documents\Новая папка (3)\BBC. Хлоп! Наука о пузырях.2013.XviD.SATRip.avi General Complete name : C:\Users\Dmitriy\Documents\Новая папка (3)\BBC. Хлоп! Наука о пузырях.2013.XviD.SATRip.avi Format : AVI Format/Info : Audio Video Interleave File size : 801 MiB Duration : 58mn 54s Overall bit rate : 1 900 Kbps Movie name : Pop! The Science of Bubbles Director : SATRip by Thunder Writing application : VirtualDubMod 1.5.10.3 | www.virtualdub-fr.org || (build 2550/release) Original source form/Name : Documentary Video #0 ID : 0 Format : MPEG-4 Visual Format profile : Advanced Simple@L5 Format settings, BVOP : Yes Format settings, QPel : No Format settings, GMC : No warppoints Format settings, Matrix : Default (H.263) Codec ID : XVID Codec ID/Hint : XviD Duration : 58mn 54s Bit rate : 1 699 Kbps Width : 720 pixels Height : 400 pixels Display aspect ratio : 16:9 Frame rate : 25.000 fps Color space : YUV Chroma subsampling : 4:2:0 Bit depth : 8 bits Scan type : Progressive Bits/(Pixel*Frame) : 0.236 Stream size : 716 MiB (89%) Writing library : XviD 1.2.1 (UTC 2008-12-04) Audio #1 ID : 1 Format : AC-3 Format/Info : Audio Coding 3 Mode extension : CM (complete main) Codec ID : 2000 Duration : 58mn 54s Bit rate mode : Constant Bit rate : 192 Kbps Channel(s) : 2 channels Channel positions : Front: L R Sampling rate : 48.0 KHz Bit depth : 16 bits Stream size : 80.9 MiB (10%) Alignment : Split accross interleaves Interleave, duration : 40 ms (1.00 video frame) Interleave, preload duration : 500 ms

Скриншоты




Показать сообщения:    

Текущее время: 12-Дек 23:43

Часовой пояс: UTC ± 0


Вы не можете начинать темы
Вы не можете отвечать на сообщения
Вы не можете редактировать свои сообщения
Вы не можете удалять свои сообщения
Вы не можете голосовать в опросах
Вы не можете прикреплять файлы к сообщениям
Вы не можете скачивать файлы

!ВНИМАНИЕ!
Сайт не предоставляет электронные версии произведений, а занимается лишь коллекционированием и каталогизацией ссылок, присылаемых и публикуемых на форуме нашими читателями. Если вы являетесь правообладателем какого-либо представленного материала и не желаете, чтобы ссылка на него находилась в нашем каталоге, свяжитесь с нами, и мы незамедлительно удалим ее. Файлы для обмена на трекере предоставлены пользователями сайта, и администрация не несет ответственности за их содержание. Просьба не заливать файлы, защищенные авторскими правами, а также файлы нелегального содержания!