Важное объявление!
У Нас Все раздачи мультитрекерные, при нуле пиров в релизах, можете смело вставать на закачку!
 
Автор Сообщение

HUNTER

Стаж:
4 года 10 месяцев
Сообщений:
65506

Репутация: 101

[+] [-]
Вне форума [Профиль] [ЛС]

BBC. Таинственный мир материалов / The Mysterious World of Materials
Год выпуска: 2011
Страна: Великобритания, BBC Scotland
Жанр: Документальный, научно-познавательный, исследование
Продолжительность: 3 x ~ 00:49:01
Перевод: Профессиональный (дублированный)
Русские субтитры: нет
Режиссер: Джон Стивентон / John Stifenton, Дэвид Бриггс / David Briggs, Ишбель Холл / Ishbel Hall
Описание: Профессор Марк Медовник посвятил жизнь раскрытию тайн материалов. В документальном цикле "Таинственный мир материалов" он знакомит зрителя с историей, особенностями и безграничными возможностями, которые новые материалы предоставляют современной цивилизации
Семпл: http://multi-up.com/953098
качество: SATRip
формат: AVI
Видео: Xvid, 720x400, 25fps, 1 750 Kbps
Аудио: AC3, 48000Hz, stereo, 192kbps

Список выпусков/серий

01. Металлы / The Secret World of Materials. Metals
Все вокруг нас сделано из металла. Металл управляет нашей цивилизацией, он - часть ее. Британский инженер и ученый Марк Медовник всю свою жизнь посвятил изучению тайн, скрывающихся в составе вещества, пытаясь понять внутренние закономерности функционирования современного мира. Он едет в Израиль, чтобы проследить историю возникновения металлов, а так же исследовать их на атомном уровне, чтобы раскрыть уникальные свойства.
02. Пластмассы / The Mysterious World of Materials: Plastics
Каждый день мы сталкиваемся с огромным количеством предметов, сделанных из пластмассы. Однако, мы даже не догадываемся, какой ценной она досталась людям...
03. Керамика / The Mysterious World of Materials: Ceramics
Каждый день мы сталкиваемся с огромным количеством предметов, сделанных из керамики. Однако, мы даже не догадываемся, каким удивительным образом происходило её открытие...

MediaInfo

L:\Новая папка\BBC. Таинственный мир материалов.2011.XviD.SATRip\01. Таинственный мир материалов. Металлы.2011.XviD.SATRip.avi General Complete name : L:\Новая папка\BBC. Таинственный мир материалов.2011.XviD.SATRip\01. Таинственный мир материалов. Металлы.2011.XviD.SATRip.avi Format : AVI Format/Info : Audio Video Interleave File size : 711 MiB Duration : 50mn 55s Overall bit rate : 1 951 Kbps Movie name : The Secret World of Materials. Metals Director : SATRip by Thunder Writing application : VirtualDubMod 1.5.10.3 | www.virtualdub-fr.org || (build 2550/release) Original source form/Name : Documentary Video #0 ID : 0 Format : MPEG-4 Visual Format profile : Advanced Simple@L5 Format settings, BVOP : Yes Format settings, QPel : No Format settings, GMC : No warppoints Format settings, Matrix : Default (H.263) Codec ID : XVID Codec ID/Hint : XviD Duration : 50mn 55s Bit rate : 1 750 Kbps Width : 720 pixels Height : 400 pixels Display aspect ratio : 16:9 Frame rate : 25.000 fps Color space : YUV Chroma subsampling : 4:2:0 Bit depth : 8 bits Scan type : Progressive Bits/(Pixel*Frame) : 0.243 Stream size : 637 MiB (90%) Writing library : XviD 1.2.1 (UTC 2008-12-04) Audio #1 ID : 1 Format : AC-3 Format/Info : Audio Coding 3 Mode extension : CM (complete main) Codec ID : 2000 Duration : 50mn 55s Bit rate mode : Constant Bit rate : 192 Kbps Channel(s) : 2 channels Channel positions : Front: L R Sampling rate : 48.0 KHz Bit depth : 16 bits Stream size : 69.9 MiB (10%) Alignment : Split accross interleaves Interleave, duration : 40 ms (1.00 video frame) Interleave, preload duration : 500 ms

Скриншоты



_________________
Показать сообщения:    

Текущее время: Сегодня 23:31

Часовой пояс: GMT



Вы не можете начинать темы
Вы не можете отвечать на сообщения
Вы не можете редактировать свои сообщения
Вы не можете удалять свои сообщения
Вы не можете голосовать в опросах
Вы не можете прикреплять файлы к сообщениям
Вы не можете скачивать файлы