Важное объявление!
У Нас Все раздачи мультитрекерные, при нуле пиров в релизах, можете смело вставать на закачку!
 
Автор Сообщение

HUNTER

Стаж:
4 года 10 месяцев
Сообщений:
65522

Репутация: 101

[+] [-]
Вне форума [Профиль] [ЛС]

BBC. Свет и тьма / BBC. Light & Dark
Дата/Год выпуска: 2013
Страна: Великобритания, BBC
Жанр: Документальный, семейный, исследования
Продолжительность: 00:51:53
Перевод: Профессиональный (дублированный)
Русские субтитры: нет
Оригинальная аудиодорожка: нет
Режиссер: Стефан Кутер / Stephen Cooter
Описание: Свет - основа жизни на нашей планете. Отвечая на вопросы "Почему небо голубое?" и "Почему трава зеленая?" можно давать однозначный ответ - "Благодаря свету". Эта неотъемлемая часть нашей жизни, но мы все еще стараемся понять феномен света...
Семпл:http://sendfile.su/1061393
качество: SATRip
формат: AVI
Видео: Xvid 720x400 25fps 1 859 Kbps
Аудио: AC3 48000Hz stereo 192kbps

Список выпусков/серий

01. Light / Свет
02. Dark / Тьма

MediaInfo

K:\Документальные фильмы\BBC. Свет и тьма. 2013.XviD.SATRip\BBC. Свет и тьма.(s.01.e01). Свет.2013.XviD.SATRip.avi General Complete name : K:\Документальные фильмы\BBC. Свет и тьма. 2013.XviD.SATRip\BBC. Свет и тьма.(s.01.e01). Свет.2013.XviD.SATRip.avi Format : AVI Format/Info : Audio Video Interleave File size : 765 MiB Duration : 51mn 53s Overall bit rate : 2 061 Kbps Movie name : Light & Dark (s.01.e.01). Light Director : SATRip by Thunder Writing application : VirtualDubMod 1.5.10.3 | www.virtualdub-fr.org || (build 2550/release) Original source form/Name : Documentary Video #0 ID : 0 Format : MPEG-4 Visual Format profile : Advanced Simple@L5 Format settings, BVOP : Yes Format settings, QPel : No Format settings, GMC : No warppoints Format settings, Matrix : Default (H.263) Codec ID : XVID Codec ID/Hint : XviD Duration : 51mn 53s Bit rate : 1 859 Kbps Width : 720 pixels Height : 400 pixels Display aspect ratio : 16:9 Frame rate : 25.000 fps Color space : YUV Chroma subsampling : 4:2:0 Bit depth : 8 bits Scan type : Progressive Bits/(Pixel*Frame) : 0.258 Stream size : 690 MiB (90%) Writing library : XviD 1.2.1 (UTC 2008-12-04) Audio #1 ID : 1 Format : AC-3 Format/Info : Audio Coding 3 Mode extension : CM (complete main) Codec ID : 2000 Duration : 51mn 53s Bit rate mode : Constant Bit rate : 192 Kbps Channel(s) : 2 channels Channel positions : Front: L R Sampling rate : 48.0 KHz Bit depth : 16 bits Stream size : 71.3 MiB (9%) Alignment : Split accross interleaves Interleave, duration : 40 ms (1.00 video frame) Interleave, preload duration : 500 ms

Скриншоты



_________________
Показать сообщения:    

Текущее время: Сегодня 18:00

Часовой пояс: GMT



Вы не можете начинать темы
Вы не можете отвечать на сообщения
Вы не можете редактировать свои сообщения
Вы не можете удалять свои сообщения
Вы не можете голосовать в опросах
Вы не можете прикреплять файлы к сообщениям
Вы не можете скачивать файлы