Важное объявление!
У Нас Все раздачи мультитрекерные, при нуле пиров в релизах, можете смело вставать на закачку!
 
Автор Сообщение

HUNTER

Стаж:
4 года 10 месяцев
Сообщений:
65473

Репутация: 101

[+] [-]
Вне форума [Профиль] [ЛС]

--История христианства
A History of Christianity
--
Год выпуска: 2009
Страна: Великобритания
Производство: BBC Television Centre
Продолжительность: 6 х 59 мин.
Перевод: Профессиональный (одноголосый, закадровый), «SDI-Media».
Русские субтитры: есть, softsub (SRT).--Описание:
Сериал рассказывает об истоках христианства и о том, как оно распространилось в Азии, Европе, Африке, Северной и Южной Америках. В основе всех христианских течений лежит одно общее верование, но что разделяет католиков, православных, протестантов или пятидесятников? Христианство стало причиной, как безрассудных поступков, так и источником благочестия и добродетели. Это вероучение прошло преследования, расколы, религиозные войны, ненависть и реформы. Однако сегодня, главным врагом христианства стали апатия и скептицизм. Станет ли этот этап последней главой в истории христианства?--Доп. информация:
Программа подготовлена к показу SDI-Media в 2014 году: перевод Татьяны Вишневской, текст читал Роман Антанович.
Перевод субтитров выполнен на сайте коллективных переводов «Notabenoid»: перевели Torry, Logos71, Lopatenok, Irina73, Tim789, Fritrika, Anjelika9, nastja_igel, Ostrolist, aestasnix, JimMor, antoniolagrande, Zmicieras, SergNev, Ilanna.
Внимание! Раздача ведётся путём добавления новых серий.--См. также:
Артур Древс - Миф о христе - 1924-1925 г.
Джон Робертсон - Первоначальное христианство - 1930 г.
Роберт Виппер - Рим и ранее христианство - 1954 г.
Яков Ленцман - Происхождение христианства - 1958 г.
Арчибалд Робертсон - Происхождение христианства - 1959 г.
Абрам Ранович - О раннем христианстве - 1959 г.
Александр Каждан - От Христа к Константину - 1965 г.
Михаил Кубланов - Возникновение христианства. Эпоха. Идеи. Искания - 1974 г.
Иосиф Крывелев - История религий - 1975-1976 г.
Ирина Свенцицкая - Раннее христианство: страницы истории - 1987 г.
Амброджо Донини - У истоков христианства - 1989 г.
Абрам Ранович - Первоисточники по истории раннего христианства - 1990 г.--Сэмпл: http://multi-up.com/1020578
Качество: HDTVRip
Формат: AVI
Видео кодек: XviD
Аудио кодек: AC3
Видео: 720x400 (1.80:1), 25 fps, XviD MPEG-4 ~1473 kbps avg, 0.20 bit/pixel
Аудио #1: 48 kHz, AC3 Dolby Digital, 2/0 (L,R) ch, ~192.00 kbps |Rus| «SDI-Media»
Аудио #2: 48 kHz, AC3 Dolby Digital, 2/0 (L,R) ch, ~192.00 kbps |Eng| отдельным файлом

Список серий

Эпизод 1: Первые христиане / The First Christianity, 5 ноября 2009
Описание: В этой серии рассказывается об истинных истоках христианства, и о том, что, возможно, Багдад являлся главным христианским центром, а не Рим, как всегда считалось. Каким образом небольшая иудейская секта стала самым влиятельным религиозным течением в мире?

Эпизод 2: Католицизм: Неожиданный успех Рима / Catholicism: The Unpredictable Rise of Rome, 12 ноября 2009

Описание: В этой серии рассказывается о том, как небольшая иудейская секта, существовавшая в I веке в Палестине, проповедовавшая смирение и бедность, превратилась в самую богатую и могущественную церковь.-Ожидается 15 декабря 2014.

Эпизод 3: Orthodoxy: From Empire to Empire, 19 ноября 2009

Ожидается 21 декабря 2014.
Эпизод 4: Reformation: The Individual Before God, 26 ноября 2009
Ожидается 28 декабря 2014.
Эпизод 5: Protestantism: The Evangelical Explosion, 3 декабря 2009
Ожидается 4 января 2014.
Эпизод 6: God in the Dock, 10 декабря 2009
Ожидается 11 января 2014.
MediaInfo
ОбщееФормат : AVIФормат/Информация : Audio Video InterleaveРазмер файла : 707 МбайтПродолжительность : 59 м.Общий поток : 1675 Кбит/секПрограмма кодирования : VirtualDubMod 1.5.4.1 (build 2178/release)Библиотека кодирования : VirtualDubMod build 2178/release
ВидеоИдентификатор : 0Формат : MPEG-4 VisualПрофиль формата : Advanced Simple@L5Параметр BVOP формата : 2Параметр QPel формата : НетПараметр GMC формата : Без точки переходаПараметр матрицы формата : Default (H.263)Режим смешивания : Сжатый битовый потокИдентификатор кодека : XVIDИдентификатор кодека/Подсказка : XviDПродолжительность : 59 м.Битрейт : 1473 Кбит/секШирина : 720 пикселейВысота : 400 пикселейСоотношение сторон : 16:9Частота кадров : 25,000 кадров/секЦветовое пространство : YUVСубдискретизация насыщенности : 4:2:0Битовая глубина : 8 битТип развёртки : ПрогрессивнаяМетод сжатия : С потерямиБит/(Пиксели*Кадры) : 0.205Размер потока : 622 Мбайт (88%)Библиотека кодирования : XviD 62
АудиоИдентификатор : 1Формат : AC-3Формат/Информация : Audio Coding 3Расширение режима : CM (complete main)Параметр Endianness формата : BigИдентификатор кодека : 2000Продолжительность : 59 м.Вид битрейта : ПостоянныйБитрейт : 192 Кбит/секКаналы : 2 каналаРасположение каналов : Front: L RЧастота : 48,0 КГцБитовая глубина : 16 битМетод сжатия : С потерямиРазмер потока : 81,0 Мбайт (11%)Выравнивание : Разделение по промежуткамПродолжительность промежутка : 40 мс. (1,00 видеокадр)Время предзагрузки промежутка : 500 мс.

Скриншоты


_________________
Показать сообщения:    

Текущее время: Сегодня 05:23

Часовой пояс: GMT



Вы не можете начинать темы
Вы не можете отвечать на сообщения
Вы не можете редактировать свои сообщения
Вы не можете удалять свои сообщения
Вы не можете голосовать в опросах
Вы не можете прикреплять файлы к сообщениям
Вы не можете скачивать файлы