Важное объявление!
У Нас Все раздачи мультитрекерные, при нуле пиров в релизах, можете смело вставать на закачку!
Статистика раздачи
Размер:     |    Зарегистрирован:     |    Скачан:     |   
Нет
 
     
 
 
Автор Сообщение

HUNTER

Стаж:
5 лет
Сообщений:
67921

Репутация: 101

[+] [-]
Вне форума [Профиль] [ЛС]

BBC. Искусство Китая / Art of China
Дата/Год выпуска: 2014
Страна: Великобритания, BBC
Жанр: Документальный, познавательный
Продолжительность: 3 x ~ 00:49:08
Перевод: Профессиональный (одноголосый закадровый)
Русские субтитры: нет
Оригинальная аудиодорожка: нет
Режиссер: Майк Кристи / Mike Christie
Описание: Искусствовед Эндрю Грэм-Диксон отправляется в Китай, чтобы погрузиться в четырёхтысячную историю уникального искусства этой страны. В первой части фильма «Искусство Китая» он изучает античные бронзовые маски, едет к Желтой реке, где по преданию зародилась каллиграфия, рассказывает о Терракотовой армии и посещает пещеры Дуньхуана, где сохранились древнейшие стенописи.
Семпл: http://sendfile.su/1121349
качество: SATRip
формат: AVI
Видео: Xvid 720x400 25fps 1 500 Kbps
Аудио: MP3 44100Hz stereo 128kbps
Исходник - Burn in The USSR
Изготовление рипа - Thunder

Список серий

01. В поисках рая
02. Золотой век
03. Столкновение Востока и Запада

MediaInfo

H:\BBC. Искусство Китая.2014.XviD.SATRip\01. В поисках рая.avi General Complete name : H:\BBC. Искусство Китая.2014.XviD.SATRip\01. В поисках рая.avi Format : AVI Format/Info : Audio Video Interleave File size : 609 MiB Duration : 51mn 53s Overall bit rate : 1 640 Kbps Movie name : Art of China Director : SATRip by Thunder Writing application : VirtualDubMod 1.5.10.3 | www.virtualdub-fr.org || (build 2550/release) Original source form/Name : Documentary Video #0 ID : 0 Format : MPEG-4 Visual Format profile : Advanced Simple@L5 Format settings, BVOP : Yes Format settings, QPel : No Format settings, GMC : No warppoints Format settings, Matrix : Default (H.263) Codec ID : XVID Codec ID/Hint : XviD Duration : 51mn 53s Bit rate : 1 500 Kbps Width : 720 pixels Height : 400 pixels Display aspect ratio : 16:9 Frame rate : 25.000 fps Color space : YUV Chroma subsampling : 4:2:0 Bit depth : 8 bits Scan type : Progressive Bits/(Pixel*Frame) : 0.208 Stream size : 557 MiB (91%) Writing library : XviD 1.2.1 (UTC 2008-12-04) Audio #1 ID : 1 Format : MPEG Audio Format version : Version 1 Format profile : Layer 3 Mode : Joint stereo Mode extension : MS Stereo Codec ID : 55 Codec ID/Hint : MP3 Duration : 51mn 53s Bit rate mode : Variable Bit rate : 128 Kbps Channel(s) : 2 channels Sampling rate : 44.1 KHz Stream size : 47.5 MiB (8%) Alignment : Aligned on interleaves Interleave, duration : 26 ms (0.65 video frame) Interleave, preload duration : 502 ms

Скриншоты



_________________
Показать сообщения:    

Текущее время: Сегодня 18:52

Часовой пояс: GMT



Вы не можете начинать темы
Вы не можете отвечать на сообщения
Вы не можете редактировать свои сообщения
Вы не можете удалять свои сообщения
Вы не можете голосовать в опросах
Вы не можете прикреплять файлы к сообщениям
Вы не можете скачивать файлы