Важное объявление!
У Нас Все раздачи мультитрекерные, при нуле пиров в релизах, можете смело вставать на закачку!
 
Автор Сообщение

HUNTER

Стаж:
4 года 8 месяцев
Сообщений:
62050

Репутация: 101

[+] [-]
Вне форума [Профиль] [ЛС]

BBC. Земля под водой / BBC. Earth under water
Дата/Год выпуска: 2010
Страна: Великобритания
Жанр: Научно-познавательный
Продолжительность: 00:50:06
Перевод: Профессиональный (двухголосый закадровый)
Доп. инфо о переводе: студия "Акцент-PRO" по заказу ГТРК "Культура"
Режиссер: Тильман Ремме / Tilman Remme
Телеканал: BBC HD
Описание: Антарктика – крупнейший ледник планеты тает. Триллионы литров воды стекает в океаны. Уровень моря растет. Такое уже случалось в далеком прошлом и происходит снова. Что предпримет человечество, наблюдая, как уровень воды неуклонно растет, затопляя города? Наступление воды величайшая из проблем будущего.
Доп. информация: Релиз записан и подготовлен релиз группой: GeneralFilm. Rip by vsobbol
Исходник: VАDЕR
Сэмпл: https://www.sendspace.com/file/jqreho
качество: HDTVRip
формат: AVI
Видео кодек:XviD
Аудио кодек:АС3
Видео: MPEG-4 Visual, 720 x 400 (1.800), 1450 Kbps, 25.000 fps
Аудио: АС3, 2 ch, 192 Kbps, 48.0 KHz
MediaInfo
Формат : AVIФормат/Информация : Audio Video InterleaveРазмер файла : 592 МбайтПродолжительность : 50 м.Общий поток : 1652 Кбит/секПрограмма кодирования : VirtualDubMod 1.5.10.3 | www.virtualdub-fr.org || (build 2550/release)Библиотека кодирования : VirtualDubMod build 2550/release
ВидеоИдентификатор : 0Формат : MPEG-4 VisualПрофиль формата : Advanced Simple@L5Параметр BVOP формата : 1Параметр QPel формата : НетПараметр GMC формата : Без точки переходаПараметр матрицы формата : Default (H.263)Идентификатор кодека : XVIDИдентификатор кодека/Подсказка : XviDПродолжительность : 50 м.Битрейт : 1450 Кбит/секШирина : 720 пикселейВысота : 400 пикселейСоотношение сторон : 16:9Частота кадров : 25,000 кадров/секЦветовое пространство : YUVСубдискретизация насыщенности : 4:2:0Битовая глубина : 8 битТип развёртки : ПрогрессивнаяМетод сжатия : С потерямиБит/(Пиксели*Кадры) : 0.201Размер потока : 520 Мбайт (88%)Библиотека кодирования : XviD 73
АудиоИдентификатор : 1Формат : AC-3Формат/Информация : Audio Coding 3Расширение режима : CM (complete main)Параметр Endianness формата : BigИдентификатор кодека : 2000Продолжительность : 50 м.Вид битрейта : ПостоянныйБитрейт : 192 Кбит/секКаналы : 2 каналаРасположение каналов : Front: L RЧастота : 48,0 КГцБитовая глубина : 16 битМетод сжатия : С потерямиРазмер потока : 68,8 Мбайт (12%)Выравнивание : Разделение по промежуткамПродолжительность промежутка : 40 мс. (1,00 видеокадр)Время предзагрузки промежутка : 500 мс.
Скриншоты

_________________
Показать сообщения:    

Текущее время: Сегодня 15:57

Часовой пояс: GMT



Вы не можете начинать темы
Вы не можете отвечать на сообщения
Вы не можете редактировать свои сообщения
Вы не можете удалять свои сообщения
Вы не можете голосовать в опросах
Вы не можете прикреплять файлы к сообщениям
Вы не можете скачивать файлы
Наши партнеры: интернет магазин Ивановского трикотажа textilla.ru