BBC. Загадка римских катакомб / BBC. The Mystery of Rome\'s X Tomb (Пол Олдинг / Paul Olding) [2013, Документальный, научно-познавательный, SATRip] :: Ивановский Торрент трекер
Важное объявление!
У Нас Все раздачи мультитрекерные, при нуле пиров в релизах, можете смело вставать на закачку!
Статистика раздачи
Размер:     |    Зарегистрирован:     |    Скачан:     |   
Нет
 
     
 
 
Автор Сообщение

HUNTER

Стаж:
4 года 11 месяцев
Сообщений:
66066

Репутация: 101

[+] [-]
Вне форума [Профиль] [ЛС]

BBC. Загадка римских катакомб / BBC. The Mystery of Rome's X Tomb
Дата/Год выпуска: 2013
Страна: Великобритания, BBC
Жанр: Документальный, научно-познавательный
Продолжительность: 00:51:50
Перевод: Профессиональный (дублированный)
Русские субтитры: нет
Оригинальная аудиодорожка: нет
Режиссер: Пол Олдинг / Paul Olding
Описание: Катакомбы Рима - сеть античных катакомб, использовавшихся как места погребений, по большей части в период раннего христианства. Всего в Риме насчитывают более 60 различных катакомб (150—170 км длиной, около 750 000 захоронений), большинство из которых расположены под землей вдоль Аппиевой дороги. Эти катакомбы представляют собой систему подземных ходов из туфа, зачастую образующих лабиринты. В их стенах для погребений проделывались прямоугольные ниши (лат. loculi) разной величины (главным образом для одного умершего, иногда для двух, и редко — для нескольких тел). На сегодняшний день почти все ниши открыты и пусты, однако сохранились и до сих пор закрытые (например, в катакомбах Панфила). С конца IX века посещение римских катакомб, лишившихся привлекавших паломников мощей, практически прекращаются, в XI—XII веках описаны единичные случаи подобных визитов.
Сэмпл: http://sendfile.su/1025098
качество: SATRip
формат: AVI
Видео: Xvid, 720x416, 25fps, 1 750 Kbps
Аудио: AC3, 48000Hz, stereo, 192kbps

MediaInfo

C:\Users\Dmitriy\Documents\BBC. Загадка римских катакомб.2013.XviD.SATRip.avi General Complete name : C:\Users\Dmitriy\Documents\BBC. Загадка римских катакомб.2013.XviD.SATRip.avi Format : AVI Format/Info : Audio Video Interleave File size : 724 MiB Duration : 51mn 50s Overall bit rate : 1 952 Kbps Movie name : BBC. The Mystery of Rome's X Tomb Director : SATRip by Thunder Writing application : VirtualDubMod 1.5.10.3 | www.virtualdub-fr.org || (build 2550/release) Original source form/Name : Documentary Video #0 ID : 0 Format : MPEG-4 Visual Format profile : Advanced Simple@L5 Format settings, BVOP : Yes Format settings, QPel : No Format settings, GMC : No warppoints Format settings, Matrix : Default (H.263) Codec ID : XVID Codec ID/Hint : XviD Duration : 51mn 50s Bit rate : 1 750 Kbps Width : 720 pixels Height : 416 pixels Display aspect ratio : 16:9 Frame rate : 25.000 fps Color space : YUV Chroma subsampling : 4:2:0 Bit depth : 8 bits Scan type : Progressive Bits/(Pixel*Frame) : 0.234 Stream size : 649 MiB (90%) Writing library : XviD 1.2.1 (UTC 2008-12-04) Audio #1 ID : 1 Format : AC-3 Format/Info : Audio Coding 3 Mode extension : CM (complete main) Codec ID : 2000 Duration : 51mn 50s Bit rate mode : Constant Bit rate : 192 Kbps Channel(s) : 2 channels Channel positions : Front: L R Sampling rate : 48.0 KHz Bit depth : 16 bits Stream size : 71.2 MiB (10%) Alignment : Split accross interleaves Interleave, duration : 40 ms (1.00 video frame) Interleave, preload duration : 500 ms

Скриншоты



_________________
Показать сообщения:    

Текущее время: Сегодня 15:48

Часовой пояс: GMT



Вы не можете начинать темы
Вы не можете отвечать на сообщения
Вы не можете редактировать свои сообщения
Вы не можете удалять свои сообщения
Вы не можете голосовать в опросах
Вы не можете прикреплять файлы к сообщениям
Вы не можете скачивать файлы