Ивановский Торрент трекер
Яндекс.Погода
 

[Цитировать]
HUNTER

BBC. Его величество случай / BBC. The Joy of Chance
Дата/Год выпуска: 2012
Страна: Великобритания, BBC
Жанр: Документальный, научно-познавательный
Продолжительность: 00:59:03
Перевод: Профессиональный (дублированный)
Режиссер: Дэн Хиллман / Dan Hillman
Описание: Каков шанс погибнуть при прыжке с парашюта? Какова вероятность дожить до ста лет? Можно ли математически спрогнозировать джек-пот? Все о случайностях, закономерностях, и вероятностях – документальный фильм «Его величество случай» на канале «Наука 2.0»
Сэмпл: http://sendfile.su/1019637
качество: SATRip
формат: AVI
Видео: Xvid, 720x400, 25fps, 1 700 Kbps
Аудио: AC3, 48000Hz, stereo, 192kbps

MediaInfo

GeneralComplete name : O:\Новая папка\BBC. Его величество случай.2012.XviD.SATRip.aviFormat : AVIFormat/Info : Audio Video InterleaveFile size : 803 MiBDuration : 59mn 3sOverall bit rate : 1 902 KbpsMovie name : BBC. The Joy of ChanceDirector : SATRip by ThunderWriting application : VirtualDubMod 1.5.10.3 | www.virtualdub-fr.org || (build 2550/release)Original source form/Name : Documentary
VideoID : 0Format : MPEG-4 VisualFormat profile : Advanced Simple@L5Format settings, BVOP : 2Format settings, QPel : NoFormat settings, GMC : No warppointsFormat settings, Matrix : Default (H.263)Codec ID : XVIDCodec ID/Hint : XviDDuration : 59mn 3sBit rate : 1 700 KbpsWidth : 720 pixelsHeight : 400 pixelsDisplay aspect ratio : 16:9Frame rate : 25.000 fpsColor space : YUVChroma subsampling : 4:2:0Bit depth : 8 bitsScan type : ProgressiveCompression mode : LossyBits/(Pixel*Frame) : 0.236Stream size : 718 MiB (89%)Writing library : XviD 1.2.1 (UTC 2008-12-04)
AudioID : 1Format : AC-3Format/Info : Audio Coding 3Mode extension : CM (complete main)Format settings, Endianness : BigCodec ID : 2000Duration : 59mn 3sBit rate mode : ConstantBit rate : 192 KbpsChannel(s) : 2 channelsChannel positions : Front: L RSampling rate : 48.0 KHzBit depth : 16 bitsCompression mode : LossyStream size : 81.1 MiB (10%)Alignment : Split accross interleavesInterleave, duration : 40 ms (1.00 video frame)Interleave, preload duration : 500 ms

Скриншоты



Показать сообщения:    

Текущее время: 12-Дек 12:27

Часовой пояс: UTC ± 0


Вы не можете начинать темы
Вы не можете отвечать на сообщения
Вы не можете редактировать свои сообщения
Вы не можете удалять свои сообщения
Вы не можете голосовать в опросах
Вы не можете прикреплять файлы к сообщениям
Вы не можете скачивать файлы

!ВНИМАНИЕ!
Сайт не предоставляет электронные версии произведений, а занимается лишь коллекционированием и каталогизацией ссылок, присылаемых и публикуемых на форуме нашими читателями. Если вы являетесь правообладателем какого-либо представленного материала и не желаете, чтобы ссылка на него находилась в нашем каталоге, свяжитесь с нами, и мы незамедлительно удалим ее. Файлы для обмена на трекере предоставлены пользователями сайта, и администрация не несет ответственности за их содержание. Просьба не заливать файлы, защищенные авторскими правами, а также файлы нелегального содержания!