Ивановский Торрент трекер
Яндекс.Погода
 

[Цитировать]
HUNTER

BBC. Доверьтесь мне, я доктор (1-3 серии из 3) / Trust Me, I'm A Doctor
Дата/Год выпуска: 2013
Страна: Великобритания, BBC
Жанр: Документальный, научно-познавательный
Продолжительность: 3 х ~ 00:51:19
Перевод: Профессиональный (дублированный)
Доп. инфо о переводе: Видеофильм ТВ
Русские субтитры: нет
Оригинальная аудиодорожка: нет
Режиссер: Грек Хантер / Creig Hunter
В ролях: Майкл Мосли
Описание: В наше время реклама частных клиник встречается на каждом шагу. Мы уверены: если мы платим – нас должны вылечить. Но в жизни зачастую бывает иначе. Как узнать: где действительно вылечат, а где могут покалечить? Смотрите документальный фильм «Доверьтесь мне, я доктор».
Сэмпл: http://sendfile.su/1080682
качество: SATRip
формат: AVI
Видео: Xvid 720x400 25fps 1 750 Kbps
Аудио: AC3 48000Hz stereo 192kbps

MediaInfo

H:\Документальные фильмы\BBC. Доверьтесь мне, я доктор.2013.XviD.SATRip\BBC. Trust Me, I'm A Doctor.(01.epizode).avi General Complete name : H:\Документальные фильмы\BBC. Доверьтесь мне, я доктор.2013.XviD.SATRip\BBC. Trust Me, I'm A Doctor.(01.epizode).avi Format : AVI Format/Info : Audio Video Interleave File size : 702 MiB Duration : 50mn 17s Overall bit rate : 1 952 Kbps Movie name : BBC. Trust Me, I'm A Doctor (01.episode) Director : SATRip by Thunder Writing application : VirtualDubMod 1.5.10.3 | www.virtualdub-fr.org || (build 2550/release) Original source form/Name : Documentary Video #0 ID : 0 Format : MPEG-4 Visual Format profile : Advanced Simple@L5 Format settings, BVOP : Yes Format settings, QPel : No Format settings, GMC : No warppoints Format settings, Matrix : Default (H.263) Codec ID : XVID Codec ID/Hint : XviD Duration : 50mn 17s Bit rate : 1 750 Kbps Width : 720 pixels Height : 400 pixels Display aspect ratio : 16:9 Frame rate : 25.000 fps Color space : YUV Chroma subsampling : 4:2:0 Bit depth : 8 bits Scan type : Progressive Bits/(Pixel*Frame) : 0.243 Stream size : 629 MiB (90%) Writing library : XviD 1.2.1 (UTC 2008-12-04) Audio #1 ID : 1 Format : AC-3 Format/Info : Audio Coding 3 Mode extension : CM (complete main) Codec ID : 2000 Duration : 50mn 17s Bit rate mode : Constant Bit rate : 192 Kbps Channel(s) : 2 channels Channel positions : Front: L R Sampling rate : 48.0 KHz Bit depth : 16 bits Stream size : 69.1 MiB (10%) Alignment : Split accross interleaves Interleave, duration : 40 ms (1.00 video frame) Interleave, preload duration : 500 ms

Скриншоты


Показать сообщения:    

Текущее время: 22-Окт 16:22

Часовой пояс: UTC - 1


Вы не можете начинать темы
Вы не можете отвечать на сообщения
Вы не можете редактировать свои сообщения
Вы не можете удалять свои сообщения
Вы не можете голосовать в опросах
Вы не можете прикреплять файлы к сообщениям
Вы не можете скачивать файлы

!ВНИМАНИЕ!
Сайт не предоставляет электронные версии произведений, а занимается лишь коллекционированием и каталогизацией ссылок, присылаемых и публикуемых на форуме нашими читателями. Если вы являетесь правообладателем какого-либо представленного материала и не желаете, чтобы ссылка на него находилась в нашем каталоге, свяжитесь с нами, и мы незамедлительно удалим ее. Файлы для обмена на трекере предоставлены пользователями сайта, и администрация не несет ответственности за их содержание. Просьба не заливать файлы, защищенные авторскими правами, а также файлы нелегального содержания!