Ивановский Торрент трекер
Яндекс.Погода
 

[Цитировать]
HUNTER

BBC. День «D». 6.6.1944 / BBC. D-Day. 6.6.1944
Год выпуска: 2004
Страна: Великобритания
Жанр: Документальный, реконструкция, война, история
Продолжительность: 01:59:18
Перевод: Одноголосый закадровый (den904)
Русские субтитры: есть (отдельным файлом, *ass)
Режиссер: Ричард Дэйл, Ким Бур / Richard Dale, Kim Bour
Описание: 6 июня 1944 года началось крупнейшее военное вторжение, и столь же мощное противостояние ему. Десантной операции таких масштабов мир еще не видел. Фильм «День «D» рассказывает эпическую историю о подготовке и осуществлении высадки союзников в Нормандии, где их ждали мощные оборонительные сооружения немецкого «Атлантического вала». Планирование вторжения 6 июня заняло два года и стоило тысяч жизней. Задолго до него была начата хитроумная и смертельно опасная тайная война, в которую были вовлечены как профессиональные разведчики, так и участники французского Сопротивления и агенты в других странах Европы. Вы увидите драматические и поразительные примеры храбрости и самопожертвования, картины радости и отчаяния, любви и предательства. В основе подготовки и событий того дня лежат как свободный выбор многих людей, так и таланты и самообладание немногих. А главную ценность ему придают воспоминания тех, кто участвовал в событиях того исторического дня.
Доп. информация: DVDRip by alf62 Релиз Группы:
БОЛЬШОЕ СПАСИБО:
- за субтитры - grizzle;
- за редакцию субтитров - anewman666;
- за синхронизацию - igumnosi;
- за русское озвучивание - den904;
- за работу со звуком - колобок;
- за финансовое содействие по озвучиванию: alinto и alf62
- за предоставленный DVD диск - alinto: http://rutracker.org/forum/viewtopic.php?t=4300554
Предыдущие и альтернативные раздачи

качество: DVDRip
формат: AVI
Видео: 720x400 (1.80:1), 25 fps, DivX, ~1528 kbps avg, 0.21 bit/pixel
Аудио: 48 kHz, AC3 Dolby Digital, 2/0 (L,R) ch, ~192.00 kbps avg

MediaInfo

General
Complete name : E:\Торенты\Rutracker.org\BBC. День «D». 6.6.1944\BBC.D-Day.6.6.1944.2004.DVDRip.alf62\BBC.D-Day.6.6.1944.2004.DivX.DVDRip.alf62.avi
Format : AVI
Format/Info : Audio Video Interleave
File size : 1.44 GiB
Duration : 1h 59mn
Overall bit rate : 1 726 Kbps
Writing application : VirtualDubModRus 1.5.10.2 (build 2542/release)
Writing library : VirtualDubMod build 2542/release
Video
ID : 0
Format : MPEG-4 Visual
Format profile : Advanced Simple@L5
Format settings, BVOP : 2
Format settings, QPel : No
Format settings, GMC : No warppoints
Format settings, Matrix : Default (MPEG)
Codec ID : DX50
Codec ID/Hint : DivX 5
Duration : 1h 59mn
Bit rate : 1 525 Kbps
Width : 720 pixels
Height : 400 pixels
Display aspect ratio : 16:9
Frame rate : 25.000 fps
Color space : YUV
Chroma subsampling : 4:2:0
Bit depth : 8 bits
Scan type : Progressive
Compression mode : Lossy
Bits/(Pixel*Frame) : 0.212
Stream size : 1.27 GiB (88%)
Writing library : XviD 64
Audio
ID : 1
Format : AC-3
Format/Info : Audio Coding 3
Mode extension : CM (complete main)
Format settings, Endianness : Big
Codec ID : 2000
Duration : 1h 59mn
Bit rate mode : Constant
Bit rate : 192 Kbps
Channel(s) : 2 channels
Channel positions : Front: L R
Sampling rate : 48.0 KHz
Bit depth : 16 bits
Compression mode : Lossy
Stream size : 163 MiB (11%)
Alignment : Split accross interleaves
Interleave, duration : 40 ms (1.00 video frame)
Interleave, preload duration : 500 ms
0 человек читают эту тему: 0 пользователей, 0 скрытых пользователей, 0 гостей

Показать сообщения:    

Текущее время: 23-Авг 13:05

Часовой пояс: UTC - 1


Вы не можете начинать темы
Вы не можете отвечать на сообщения
Вы не можете редактировать свои сообщения
Вы не можете удалять свои сообщения
Вы не можете голосовать в опросах
Вы не можете прикреплять файлы к сообщениям
Вы не можете скачивать файлы

!ВНИМАНИЕ!
Сайт не предоставляет электронные версии произведений, а занимается лишь коллекционированием и каталогизацией ссылок, присылаемых и публикуемых на форуме нашими читателями. Если вы являетесь правообладателем какого-либо представленного материала и не желаете, чтобы ссылка на него находилась в нашем каталоге, свяжитесь с нами, и мы незамедлительно удалим ее. Файлы для обмена на трекере предоставлены пользователями сайта, и администрация не несет ответственности за их содержание. Просьба не заливать файлы, защищенные авторскими правами, а также файлы нелегального содержания!