Ивановский Торрент трекер
Яндекс.Погода
 

[Цитировать]
HUNTER

BBC: Голубая бездна (Глубина) / Deep Blue
«Until Now We've Only Touched The Surface»
7.78 / 7.50 Год выпуска: 2003
Страна: Германия, Великобритания
Жанр: Документальный
Продолжительность: 01:26:41
Перевод: Одноголосый (закадровый) |О. Курдюков, BBC|
Русские субтитры: нет-Режиссер: Энди Биатт, Аластер Фозергилл / Andy Byatt, Alastair Fothergill-Описание: Уникальный документальный фильм о подводной жизни, ставший невероятно популярным во всём мире. Это чудесное путешествие под водой: от Северного полюса до тропиков, от мелководных коралловых рифов до глубочайших недр океана. Очаровательный мир океанской фауны: опасные акулы, величественные скаты, рыбы всех цветов радуги и захватывающие образы всевозможных форм жизни подводного рая. Этот фильм рассказывает о необычайной жизни в океане: дельфины, киты и акулы, впечатляющая растительность и морские птицы.- -Качество: BDRip-AVC
Формат: MKV
Видео: MPEG-4 AVC, 1024x576, 25.000 fps, (16:9), ~2735 kbps avg, 0.18 bit/pixel
Аудио# 1: Russian | 48.0 kHz, AC3 Dolby Digital, 3/2 (L,C,R,l,r) + LFE ch, ~448.00 kbps avg
Аудио# 2: English | 48.0 kHz, AC3 Dolby Digital, 3/2 (L,C,R,l,r) + LFE ch, ~192.00 kbps avg

MediaInfo

ОбщееУникальный идентификатор : 230690403123978597059573429400787209789 (0xAD8D5B03BF35814AA874E70382DBCE3D)Полное имя : A:\Фильмы\BBC.Golubaja.bezdna.2003.x264.BDRip.(AVC).mkvФормат : MatroskaВерсия формата : Version 1Размер файла : 2,05 ГбайтПродолжительность : 1 ч. 26 м.Общий поток : 3378 Кбит/секДата кодирования : UTC 2011-12-11 09:07:33Программа кодирования : mkvmerge v2.1.0 ('Another Place To Fall') built on Aug 19 2007 13:40:07Библиотека кодирования : libebml v0.7.7 + libmatroska v0.8.1
ВидеоИдентификатор : 1Формат : AVCФормат/Информация : Advanced Video CodecПрофиль формата : High@L4.1Параметр CABAC формата : ДаПараметр ReFrames формата : 6 кадровИдентификатор кодека : V_MPEG4/ISO/AVCПродолжительность : 1 ч. 26 м.Битрейт : 2735 Кбит/секШирина : 1024 пикселяВысота : 576 пикселейСоотношение сторон : 16:9Режим частоты кадров : ПостоянныйЧастота кадров : 25,000 кадров/секЦветовое пространство : YUVСубдискретизация насыщенности : 4:2:0Битовая глубина : 8 битТип развёртки : ПрогрессивнаяБит/(Пиксели*Кадры) : 0.185Размер потока : 1,62 Гбайт (79%)Библиотека кодирования : x264 core 115 r1937 aa21558Настройки программы : cabac=1 / ref=6 / deblock=1:-1:-1 / analyse=0x3:0x113 / me=hex / subme=6 / psy=1 / psy_rd=1.00:0.10 / mixed_ref=0 / me_range=16 / chroma_me=1 / trellis=1 / 8x8dct=1 / cqm=0 / deadzone=21,11 / fast_pskip=1 / chroma_qp_offset=-3 / threads=6 / sliced_threads=0 / nr=0 / decimate=1 / interlaced=0 / bluray_compat=0 / constrained_intra=0 / bframes=6 / b_pyramid=2 / b_adapt=2 / b_bias=0 / direct=3 / weightb=1 / open_gop=0 / weightp=0 / keyint=250 / keyint_min=25 / scenecut=40 / intra_refresh=0 / rc_lookahead=30 / rc=2pass / mbtree=1 / bitrate=2735 / ratetol=1.0 / qcomp=0.60 / qpmin=15 / qpmax=47 / qpstep=3 / cplxblur=20.0 / qblur=0.5 / ip_ratio=1.40 / aq=1:1.10Язык : EnglishDefault : ДаForced : Нет
Аудио #1Идентификатор : 2Формат : AC-3Формат/Информация : Audio Coding 3Расширение режима : CM (complete main)Параметр Endianness формата : BigИдентификатор кодека : A_AC3Продолжительность : 1 ч. 26 м.Вид битрейта : ПостоянныйБитрейт : 448 Кбит/секКаналы : 6 каналовРасположение каналов : Front: L C R, Side: L R, LFEЧастота : 48,0 КГцБитовая глубина : 16 битМетод сжатия : С потерямиРазмер потока : 278 Мбайт (13%)Default : ДаForced : Нет
Аудио #2Идентификатор : 3Формат : AC-3Формат/Информация : Audio Coding 3Расширение режима : CM (complete main)Параметр Endianness формата : BigИдентификатор кодека : A_AC3Продолжительность : 1 ч. 26 м.Вид битрейта : ПостоянныйБитрейт : 192 Кбит/секКаналы : 6 каналовРасположение каналов : Front: L C R, Side: L R, LFEЧастота : 48,0 КГцБитовая глубина : 16 битМетод сжатия : С потерямиРазмер потока : 119 Мбайт (6%)Default : НетForced : Нет

Скриншоты


Показать сообщения:    

Текущее время: 25-Сен 05:19

Часовой пояс: UTC - 1


Вы не можете начинать темы
Вы не можете отвечать на сообщения
Вы не можете редактировать свои сообщения
Вы не можете удалять свои сообщения
Вы не можете голосовать в опросах
Вы не можете прикреплять файлы к сообщениям
Вы не можете скачивать файлы

!ВНИМАНИЕ!
Сайт не предоставляет электронные версии произведений, а занимается лишь коллекционированием и каталогизацией ссылок, присылаемых и публикуемых на форуме нашими читателями. Если вы являетесь правообладателем какого-либо представленного материала и не желаете, чтобы ссылка на него находилась в нашем каталоге, свяжитесь с нами, и мы незамедлительно удалим ее. Файлы для обмена на трекере предоставлены пользователями сайта, и администрация не несет ответственности за их содержание. Просьба не заливать файлы, защищенные авторскими правами, а также файлы нелегального содержания!