Важное объявление!
У Нас Все раздачи мультитрекерные, при нуле пиров в релизах, можете смело вставать на закачку!
Статистика раздачи
Размер:     |    Зарегистрирован:     |    Скачан:     |   
Нет
 
     
 
 
Автор Сообщение

HUNTER

Стаж:
5 лет 1 месяц
Сообщений:
68426

Репутация: 101

[+] [-]
Вне форума [Профиль] [ЛС]

BBC. Гениальные изобретения / The Genius of Invention
Дата/Год выпуска: 2013
Страна: Великобритания, BBC
Жанр: Документальный, научно-познавательный, история
Продолжительность: 4 х ~ 00:49:41
Перевод: Профессиональный (дублированный)
Русские субтитры: нет
Оригинальная аудиодорожка: нет
Режиссер: Виктория Белл / Viktoria Bell
Описание: Удивительная история открытия электричества: одной из самых интересных и невероятных загадок природы. В документальном фильме представлена история самых первых исследователей, раскрывавших загадки электричества.
Доп. информация: http://www.imdb.com/title/tt2614460/
Сэмпл: http://sendfile.su/1007118
качество: SATRip
формат: AVI
Видео: Xvid, 720x400, 25fps, 1 750 Kbps
Аудио: AC3, 48000Hz, stereo, 192kbps

Список выпусков/серий

01. Электричество / Power
02. Скорость / Speed
03. Средства связи / Communication
04. Визуальные изображения / Visual Image

MediaInfo

J:\BBC.Genialnye.izobretenija.(1.sezon).2013.XviD.SATRip\BBC.Genialnye.izobretenija.(01.serija).Jelektrichestvo.2013.XviD.SATRip.avi General Complete name : J:\BBC.Genialnye.izobretenija.(1.sezon).2013.XviD.SATRip\BBC.Genialnye.izobretenija.(01.serija).Jelektrichestvo.2013.XviD.SATRip.avi Format : AVI Format/Info : Audio Video Interleave File size : 694 MiB Duration : 49mn 41s Overall bit rate : 1 951 Kbps Movie name : 01. Power Director : SATRip by Thunder Writing application : VirtualDubMod 1.5.10.3 | www.virtualdub-fr.org || (build 2550/release) Original source form/Name : Documentary Video #0 ID : 0 Format : MPEG-4 Visual Format profile : Advanced Simple@L5 Format settings, BVOP : Yes Format settings, QPel : No Format settings, GMC : No warppoints Format settings, Matrix : Default (H.263) Codec ID : XVID Codec ID/Hint : XviD Duration : 49mn 41s Bit rate : 1 750 Kbps Width : 720 pixels Height : 400 pixels Display aspect ratio : 16:9 Frame rate : 25.000 fps Color space : YUV Chroma subsampling : 4:2:0 Bit depth : 8 bits Scan type : Progressive Bits/(Pixel*Frame) : 0.243 Stream size : 622 MiB (90%) Writing library : XviD 1.2.1 (UTC 2008-12-04) Audio #1 ID : 1 Format : AC-3 Format/Info : Audio Coding 3 Mode extension : CM (complete main) Codec ID : 2000 Duration : 49mn 41s Bit rate mode : Constant Bit rate : 192 Kbps Channel(s) : 2 channels Channel positions : Front: L R Sampling rate : 48.0 KHz Bit depth : 16 bits Stream size : 68.2 MiB (10%) Alignment : Split accross interleaves Interleave, duration : 40 ms (1.00 video frame) Interleave, preload duration : 500 ms

Скриншоты



_________________
Показать сообщения:    

Текущее время: Сегодня 23:40

Часовой пояс: GMT



Вы не можете начинать темы
Вы не можете отвечать на сообщения
Вы не можете редактировать свои сообщения
Вы не можете удалять свои сообщения
Вы не можете голосовать в опросах
Вы не можете прикреплять файлы к сообщениям
Вы не можете скачивать файлы