Ивановский Торрент трекер
Яндекс.Погода
 

[Цитировать]
HUNTER

BBC: В поисках Троянской войны / Троя / In Search Of The Trojan War
Дата/Год выпуска: 1985 (Релиз на DVD в 2006 г.)
Страна: Великобритания (BBC)
Жанр: научно-популярный, история
Продолжительность: 6x57мин
Перевод: Профессиональный (одноголосый закадровый)
Русские субтитры: есть
Формат субтитров: softsub (SRT)
Оригинальная аудиодорожка: английский
Режиссер: Билл Лайонс / Bill Lyons
Автор сценария и ведущий: Майкл Вуд / Michael Wood
Описание: Историк Майкл Вуд проверяет, насколько исторические и археологические свидетельства совпадают с историей о Троянской войне.
На протяжении шести серий Вуд исследует, что представляют из себя исторический и легендарный город Троя, и почему он занимает центральное место в современной западной культуре и культуре микенской эпохи. Путешествие тянется от Шлиманна, раскопавшего склоны Гиссарлыка, через Эгейское море и дальше, вплоть до Восточного Берлина и Ливерпуля...
Сериал "В поисках Троянской войны" следует той же формуле успеха, которая была нащупана в предыдущем детективно-историческом сериале ("В поисках Тёмных веков") и принесла Майклу Вуду славу одного из наиболее харизматичных телеисториков. Майкл Вуд не только прирождённый телеведущий, он имеет достаточно глубокое академическое образование и навыки расказчика чтобы сотворить настоящую загадку из археологических, литературных и мифологических источников.
Доп. информация: Фильмы Майкла Вуда - один из безусловных шедевров BBC, вполне на уровне фильмов Дэвида Аттенборо или Джекоба Броновски.
Сэмпл: http://yadi.sk/d/i3AcrXoXKbBmW
качество: DVDRip (источник)
формат: MKV
Видео: AVC H.264 High@L3.1, 720x544 (4/3), 25 fps, 1 784 Kbps (0.182 bit/pixel)
Аудио: AC-3, 48.0 KHz, 2 ch, 192 Kbps, CBR (Russian)
Аудио 2: AC-3, 48.0 KHz, 2 ch, 192 Kbps, CBR (English)

Список выпусков/серий

1. Время героев
2. Проверка легенды
3. Древние сказители
4. Женщины Трои
5. Империя хеттов
6. Падение Трои

MediaInfo

GeneralUnique ID : 241412369321033867477784315178991469739 (0xB59E54C31B328A4EBAA1CC2EB9EFC4AB)Complete name : D:\Torrent\Раздаваемое\BBC. Майкл Вуд. 1985 В поисках троянской войны [6x57мин]\1. Время героев.mkvFormat : MatroskaFormat version : Version 4 / Version 2File size : 879 MiBDuration : 55mn 32sOverall bit rate : 2 213 KbpsEncoded date : UTC 2014-03-09 06:35:37Writing application : mkvmerge v6.8.0 ('Theme for Great Cities') 64bit built on Mar 2 2014 21:34:26Writing library : libebml v1.3.0 + libmatroska v1.4.1
VideoID : 1Format : AVCFormat/Info : Advanced Video CodecFormat profile : High@L3.1Format settings, CABAC : YesFormat settings, ReFrames : 2 framesCodec ID : V_MPEG4/ISO/AVCDuration : 55mn 32sBit rate : 1 785 KbpsWidth : 720 pixelsHeight : 544 pixelsDisplay aspect ratio : 4:3Frame rate mode : ConstantFrame rate : 25.000 fpsStandard : NTSCColor space : YUVChroma subsampling : 4:2:0Bit depth : 8 bitsScan type : ProgressiveBits/(Pixel*Frame) : 0.182Stream size : 709 MiB (81%)Language : EnglishDefault : YesForced : NoColor primaries : BT.601 NTSCTransfer characteristics : BT.601Matrix coefficients : BT.601
Audio #1ID : 2Format : AC-3Format/Info : Audio Coding 3Mode extension : CM (complete main)Format settings, Endianness : BigCodec ID : A_AC3Duration : 55mn 32sBit rate mode : ConstantBit rate : 192 KbpsChannel(s) : 2 channelsChannel positions : Front: L RSampling rate : 48.0 KHzBit depth : 16 bitsCompression mode : LossyStream size : 76.3 MiB (9%)Language : RussianDefault : YesForced : No
Audio #2ID : 3Format : AC-3Format/Info : Audio Coding 3Mode extension : CM (complete main)Format settings, Endianness : BigCodec ID : A_AC3Duration : 55mn 32sBit rate mode : ConstantBit rate : 192 KbpsChannel(s) : 2 channelsChannel positions : Front: L RSampling rate : 48.0 KHzBit depth : 16 bitsCompression mode : LossyStream size : 76.3 MiB (9%)Language : EnglishDefault : NoForced : No
TextID : 4Format : UTF-8Codec ID : S_TEXT/UTF8Codec ID/Info : UTF-8 Plain TextLanguage : RussianDefault : YesForced : No
Показать сообщения:    

Текущее время: 22-Окт 20:11

Часовой пояс: UTC - 1


Вы не можете начинать темы
Вы не можете отвечать на сообщения
Вы не можете редактировать свои сообщения
Вы не можете удалять свои сообщения
Вы не можете голосовать в опросах
Вы не можете прикреплять файлы к сообщениям
Вы не можете скачивать файлы

!ВНИМАНИЕ!
Сайт не предоставляет электронные версии произведений, а занимается лишь коллекционированием и каталогизацией ссылок, присылаемых и публикуемых на форуме нашими читателями. Если вы являетесь правообладателем какого-либо представленного материала и не желаете, чтобы ссылка на него находилась в нашем каталоге, свяжитесь с нами, и мы незамедлительно удалим ее. Файлы для обмена на трекере предоставлены пользователями сайта, и администрация не несет ответственности за их содержание. Просьба не заливать файлы, защищенные авторскими правами, а также файлы нелегального содержания!