Ивановский Торрент трекер
Яндекс.Погода
 

[Quote]
HUNTER

BBC. Замки: История укрепления Британии (1-3 cерии из 3-х) / Castles: Britain's Fortified History
Дата/Год выпуска: 2014
Страна: Великобритания
Жанр: документальный, история
Продолжительность: 3 серии ~ 00:50:02
Перевод: Профессиональный (двухголосый закадровый)
Доп. инфо о переводе: SDI-Media по заказу ТПО "Red- Media"
Русские субтитры: нет
Режиссер: Бен Соутвел / Ben Southwell
Ведущий: Доктор Сэм Уиллис / Dr. Sam Willis
Телеканал: 365 Дней
Описание: Историк Сэм Уиллис рассказывает об истории британских замков, а также об уникальной роли, которую они сыграли в британской истории, искусстве и литературе
Сэмпл: http://multi-up.com/1257999
качество: DVBRip
формат: AVI
Видео: Xvid (4:3) 704x416 25fps 1499kbps
Аудио: MP3 48000Hz stereo 128kbps 2 channels

Список выпусков/серий

01. Орудия вторжения / Instruments of Invasion
02. Королевство завоеваний / Kingdom of Conquest
03. Защита королевства / Defence of the Realm

MediaInfo

General
Complete name : F:\Замки. История укрепления Британии\Замки. История укрепления Британии AVI\3. Защита королевства.avi
Format : AVI
Format/Info : Audio Video Interleave
File size : 587 MiB
Duration : 50mn 1s
Overall bit rate : 1 641 Kbps
Video
ID : 0
Format : MPEG-4 Visual
Format profile : Advanced [email protected]
Format settings, BVOP : 2
Format settings, QPel : No
Format settings, GMC : No warppoints
Format settings, Matrix : Default (H.263)
Codec ID : XVID
Codec ID/Hint : XviD
Duration : 50mn 1s
Bit rate : 1 500 Kbps
Width : 704 pixels
Height : 416 pixels
Display aspect ratio : 1.692
Frame rate : 25.000 fps
Color space : YUV
Chroma subsampling : 4:2:0
Bit depth : 8 bits
Scan type : Progressive
Compression mode : Lossy
Bits/(Pixel*Frame) : 0.205
Stream size : 537 MiB (91%)
Writing library : XviD 64
Audio
ID : 1
Format : MPEG Audio
Format version : Version 1
Format profile : Layer 3
Codec ID : 55
Codec ID/Hint : MP3
Duration : 50mn 1s
Source duration : 50mn 1s
Bit rate mode : Constant
Bit rate : 128 Kbps
Channel(s) : 2 channels
Sampling rate : 48.0 KHz
Compression mode : Lossy
Stream size : 45.8 MiB (8%)
Alignment : Split accross interleaves
Interleave, duration : 24 ms (0.60 video frame)
Мои раздачи:архитектура, искусство, недвижимость, христианство https://rutracker.org/forum/tracker.php?rid=8171303 Дорогие мои, о необходимости встать на раздачу, пожалуйста, пишите в личном сообщении.


Display posts:    

Current time is: 08-Apr 14:49

All times are UTC ± 0


You cannot post new topics in this forum
You cannot reply to topics in this forum
You cannot edit your posts in this forum
You cannot delete your posts in this forum
You cannot vote in polls in this forum
You cannot attach files in this forum
You cannot download files in this forum

!ATTENTION!
The site does not give electronic versions of products, and is engaged only in a collecting and cataloguing of the references sent and published at a forum by our readers. If you are the legal owner of any submitted material and do not wish that the reference to it was in our catalogue, contact us and we shall immediately remove her. Files for an exchange on tracker are given by users of a site, and the administration does not bear the responsibility for their maintenance. The request to not fill in the files protected by copyrights, and also files of the illegal maintenance!