Ивановский Торрент трекер
Яндекс.Погода
DL-List and Torrent activity
Complete
 
     
 
 

[Quote]
HUNTER

В поисках новой Земли / The Search for a New Earth
Дата/Год выпуска: 2017
Страна: Велиобритания, Brook Lapping Productions, BBC
Жанр: Документальный, космос
Продолжительность: 2 х ~00:47:13
Перевод: Профессиональный (двухголосый закадровый)
Доп. инфо о переводе: Видеофильм ТВ
Режиссер: Duncan Bulling / Дункан Буллинг
Телеканал: Наука
Описание: Профессор Стивен Хокинг, профессор Даниэль Джордж и Кристоф Гэлфард объединяют усилия, чтобы выяснить, могут ли люди достичь звезд и переместиться на разные планеты и каким образом.
imdb
Сэмпл: https://www.sendspace.com/file/41lfdn
качество: DVB
формат: TS
Видео: 720x576 (16:9) AVC (H.264) Main@L3.0, ~ 1991 kbps, 25fps
Аудио: Русский 48 kHz, MPEG Layer 2, 2 ch, ~192.00 kbps avg

Список выпусков/серий

01. В поисках новой Земли / Expedition New Earth - Finding a new Earth
Всемирно известный астрофизик Стивен Хокинг считал, что в связи такими проблемами, как перенаселение, изменения климата, возможный удар астероида, людям необходимо покинуть Землю и колонизировать другую планету в ближайшие 100 лет. Ведущие программы Дэниел и Кристоф отправляются в пустыню Атакама в Чили, чтобы посетить один из крупнейших в мире телескопов. С его помощью они исследуют ряд экзопланет, чтобы найти ту единственную, которая может стать нашим новым домом.
02. Экспедиция. Путешествие к новым мирам / Journey to a new World
Определив, что наиболее подходящей планетой для переселения является Проксима B, ведущие программы исследуют, существуют ли безопасные способы добраться до нее. Космос полон опасностей, и чтобы узнать об этом подробнее "из первых уст" Дэниел поговорит с одним из астронавтом. В заключительной части фильма мы отправимся в НАСА и посмотрим, как разрабатываются роботы, которые помогут нам колонизировать планету, когда мы прибудем туда.

MediaInfo

Complete name : F:\Наладки\SD-фильмы\Экспедиция\01. В поисках новой Земли.ts
Format : MPEG-TS
File size : 776 MiB
Duration : 47 min 13 s
Overall bit rate mode : Variable
Overall bit rate : 2 299 kb/s
Video
ID : 401 (0x191)
Menu ID : 2608 (0xA30)
Format : AVC
Format/Info : Advanced Video Codec
Format profile : Main@L3
Format settings : CABAC / 4 Ref Frames
Format settings, CABAC : Yes
Format settings, Reference : 4 frames
Format settings, GOP : M=4, N=28
Codec ID : 27
Duration : 47 min 13 s
Bit rate : 1 991 kb/s
Width : 720 pixels
Height : 576 pixels
Display aspect ratio : 16:9
Frame rate : 25.000 FPS
Standard : Component
Color space : YUV
Chroma subsampling : 4:2:0
Bit depth : 8 bits
Scan type : Interlaced
Scan type, store method : Separated fields
Scan order : Top Field First
Bits/(Pixel*Frame) : 0.192
Stream size : 672 MiB (87%)
Color range : Limited
Color primaries : BT.601 PAL
Transfer characteristics : BT.470 System B/G
Matrix coefficients : BT.470 System B/G
Audio
ID : 402 (0x192)
Menu ID : 2608 (0xA30)
Format : MPEG Audio
Format version : Version 1
Format profile : Layer 2
Codec ID : 3
Duration : 47 min 13 s
Bit rate mode : Constant
Bit rate : 192 kb/s
Channel(s) : 2 channels
Sampling rate : 48.0 kHz
Frame rate : 41.667 FPS (1152 SPF)
Compression mode : Lossy
Delay relative to video : -80 ms
Stream size : 64.8 MiB (8%)
Language : Russian
Complete name : F:\Наладки\SD-фильмы\Экспедиция\02. Путешествие к новым мирам.ts
Format : MPEG-TS
File size : 814 MiB
Duration : 47 min 41 s
Overall bit rate mode : Variable
Overall bit rate : 2 385 kb/s
Video
ID : 401 (0x191)
Menu ID : 2608 (0xA30)
Format : AVC
Format/Info : Advanced Video Codec
Format profile : Main@L3
Format settings : CABAC / 4 Ref Frames
Format settings, CABAC : Yes
Format settings, Reference : 4 frames
Format settings, GOP : M=4, N=28
Codec ID : 27
Duration : 47 min 41 s
Bit rate : 2 073 kb/s
Width : 720 pixels
Height : 576 pixels
Display aspect ratio : 16:9
Frame rate : 25.000 FPS
Standard : Component
Color space : YUV
Chroma subsampling : 4:2:0
Bit depth : 8 bits
Scan type : Interlaced
Scan type, store method : Separated fields
Scan order : Top Field First
Bits/(Pixel*Frame) : 0.200
Stream size : 707 MiB (87%)
Color range : Limited
Color primaries : BT.601 PAL
Transfer characteristics : BT.470 System B/G
Matrix coefficients : BT.470 System B/G
Audio
ID : 402 (0x192)
Menu ID : 2608 (0xA30)
Format : MPEG Audio
Format version : Version 1
Format profile : Layer 2
Codec ID : 3
Duration : 47 min 41 s
Bit rate mode : Constant
Bit rate : 192 kb/s
Channel(s) : 2 channels
Sampling rate : 48.0 kHz
Frame rate : 41.667 FPS (1152 SPF)
Compression mode : Lossy
Delay relative to video : -40 ms
Stream size : 65.5 MiB (8%)
Language : Russian


Display posts:    

Current time is: 22-Nov 02:45

All times are UTC ± 0


You cannot post new topics in this forum
You cannot reply to topics in this forum
You cannot edit your posts in this forum
You cannot delete your posts in this forum
You cannot vote in polls in this forum
You cannot attach files in this forum
You cannot download files in this forum

!ATTENTION!
The site does not give electronic versions of products, and is engaged only in a collecting and cataloguing of the references sent and published at a forum by our readers. If you are the legal owner of any submitted material and do not wish that the reference to it was in our catalogue, contact us and we shall immediately remove her. Files for an exchange on tracker are given by users of a site, and the administration does not bear the responsibility for their maintenance. The request to not fill in the files protected by copyrights, and also files of the illegal maintenance!