Barbie: Марипоса и Принцесса-фея / Barbie: Mariposa & The Fairy Princess (Уильям Лау / William Lau) [2013 г., мультфильм, фэнтези, приключения, BDRip 1080p] Dub + Eng + Sub :: Ивановский Торрент трекер
Важное объявление!
У Нас Все раздачи мультитрекерные, при нуле пиров в релизах, можете смело вставать на закачку!
 
Автор Сообщение

HUNTER

Стаж:
4 года 11 месяцев
Сообщений:
66045

Репутация: 101

[+] [-]
Вне форума [Профиль] [ЛС]

| Все релизы мультфильма || BDRip 1080p, 6.61 GB |- P R E S E N T SBarbie: Марипоса и Принцесса-фея / Barbie: Mariposa & The Fairy Princess-
Страна: США
Жанр: мультфильм, фэнтези, приключения
Продолжительность: 01:19:29
Год выпуска: 2013
Перевод: Профессиональный (полное дублирование)
Субтитры: английские (полные и для слабослышащих)-Режиссёр: Уильям Лау / William Lau
Роли озвучивали: Келли Шеридан, Марика Хендрикс, Табита Сен-Жермен, Кэтлин Барр, Мари Девереукс, Алессандро Джулиани, Джейн Барр, Алистэр Эбелл, Расселл Робертс, Сэм Винсент...- | | -Описание: Марипосу ждут новые волшебные приключения, ведь она, как посол Сказочной страны, отправляется налаживать дружбу с соседями, Кристальными феями Светящейся долины. Ей не сразу удается найти общий язык с Королем, зато с ето застенчивой дочерью, принцессой Катанией, они быстро становятся настоящими подругами! Вскоре из-за досадного недоразумения Марипосе и Зи приходится вернуться домой, где они сталкиваются с коварной волшебницей, намеревающейся уничтожить Светящуюся долину. Марипоса спешит на помощь подруге Катании, и вместе девочки побеждают зло и доказывают, что лучший способ найти верного друга - самому стать настоящим другом!...-Доп. информация: BDRip 1080p сделан с BDRemux'а Barbie: Mariposa & The Fairy Princess (2013) 1080p BD-Remux -HDCLUB.
Отдельное спасибо xfiles за подготовку русской звуковой дорожки.
-Сэмпл/Sample (73.3 MB, 1 минута)-Качество: BDRip 1080p
Формат: MKV
Видео: 1920x1080 (1.778:1), 23,976 fps, ~10007 kbps avg, 0.201 bit/pixel
Аудио #1: Русский, AC3, 6 ch, 48 kHz, 384 kbps - Дубляж |
Аудио #3: English, DTS / 5.1 / 48 kHz / 1509 kbps / 16 bit - Original
Субтитры: English (Full, SDH)
Навигация по главам: есть (12 именованных глав)

MediaInfo / x264Log

x264Log

raw [info]: 1920x1080p 1:1 @ 24000/1001 fps (cfr)x264 [info]: using SAR=1/1x264 [info]: using cpu capabilities: MMX2 SSE2Fast SSSE3 SSE4.2 AVX XOP FMA4 FMA3 LZCNT BMI1x264 [info]: profile High, level 4.1x264 [info]: frame I:929 Avg QP:15.19 size:243207 PSNR Mean Y:50.11 U:51.46 V:51.61 Avg:50.48 Global:49.90x264 [info]: frame P:39264 Avg QP:16.12 size: 86971 PSNR Mean Y:48.44 U:50.01 V:50.06 Avg:48.87 Global:48.01x264 [info]: frame B:74143 Avg QP:18.90 size: 31348 PSNR Mean Y:47.57 U:49.03 V:49.19 Avg:47.97 Global:47.22x264 [info]: consecutive B-frames: 6.9% 8.4% 48.8% 18.8% 8.6% 7.7% 0.3% 0.1% 0.1% 0.1% 0.0% 0.1%x264 [info]: mb I I16..4: 2.9% 89.4% 7.7%x264 [info]: mb P I16..4: 2.2% 30.7% 1.6% P16..4: 27.4% 22.3% 6.2% 0.5% 0.0% skip: 9.0%x264 [info]: mb B I16..4: 1.2% 7.5% 0.3% B16..8: 30.6% 14.6% 2.3% direct: 7.2% skip:36.2% L0:34.8% L1:46.2% BI:19.0%x264 [info]: 8x8 transform intra:86.9% inter:75.4%x264 [info]: coded y,uvDC,uvAC intra: 71.7% 89.8% 75.0% inter: 19.2% 28.3% 9.3%x264 [info]: i16 v,h,dc,p: 24% 13% 7% 56%x264 [info]: i8 v,h,dc,ddl,ddr,vr,hd,vl,hu: 17% 12% 26% 6% 7% 8% 7% 9% 9%x264 [info]: i4 v,h,dc,ddl,ddr,vr,hd,vl,hu: 22% 13% 20% 5% 12% 10% 8% 6% 5%x264 [info]: i8c dc,h,v,p: 38% 22% 20% 20%x264 [info]: Weighted P-Frames: Y:1.7% UV:1.3%x264 [info]: ref P L0: 59.8% 13.5% 18.1% 5.8% 2.7% 0.0%x264 [info]: ref B L0: 86.3% 11.2% 2.5%x264 [info]: ref B L1: 91.0% 9.0%x264 [info]: SSIM Mean Y:0.9918845 (20.907db)x264 [info]: PSNR Mean Y:47.892 U:49.384 V:49.511 Avg:48.299 Global:47.493 kb/s:10006.77encoded 114336 frames, 3.97 fps, 10006.77 kb/s
GeneralUnique ID : 238302465670550818959500933229269329048 (0xB34762AC9077134782F4AC78F3A5A498)Complete name : Barbie.Mariposa.and.The.Fairy.Princess.2013.BDRip.1080p.dfcbit.mkvFormat : MatroskaFormat version : Version 2File size : 6.61 GiBDuration : 1h 19mnOverall bit rate : 11.9 MbpsEncoded date : UTC 2014-02-24 13:47:50Writing application : mkvmerge v4.0.0 ('The Stars were mine') built on Jun 6 2010 16:18:42Writing library : libebml v1.0.0 + libmatroska v1.0.0
VideoID : 1Format : AVCFormat/Info : Advanced Video CodecFormat profile : High@L4.1Format settings, CABAC : YesFormat settings, ReFrames : 4 framesCodec ID : V_MPEG4/ISO/AVCDuration : 1h 19mnBit rate : 10.0 MbpsWidth : 1 920 pixelsHeight : 1 080 pixelsDisplay aspect ratio : 16:9Frame rate mode : ConstantFrame rate : 23.976 fpsColor space : YUVChroma subsampling : 4:2:0Bit depth : 8 bitsScan type : ProgressiveBits/(Pixel*Frame) : 0.201Stream size : 5.56 GiB (82%)Title : NTSC, 1920x1080 (1.778:1), BDRip 1080p - tRuAVC & Multfilmy [DFCbit]Writing library : x264 core 142 r2389kMod 956c8d8Encoding settings : cabac=1 / ref=4 / deblock=1:-1:-1 / analyse=0x3:0x133 / me=umh / subme=11 / psy=1 / fade_compensate=0.00 / psy_rd=0.63:0.00 / mixed_ref=1 / me_range=32 / chroma_me=1 / trellis=2 / 8x8dct=1 / cqm=0 / deadzone=21,11 / fast_pskip=0 / chroma_qp_offset=-2 / threads=12 / lookahead_threads=3 / sliced_threads=0 / nr=0 / decimate=1 / interlaced=0 / bluray_compat=0 / constrained_intra=0 / fgo=0 / bframes=11 / b_pyramid=2 / b_adapt=2 / b_bias=0 / direct=1 / weightb=1 / open_gop=0 / weightp=2 / keyint=250 / keyint_min=23 / scenecut=40 / intra_refresh=0 / rc_lookahead=70 / rc=crf / mbtree=0 / crf=18.2700 / qcomp=0.81 / qpmin=0 / qpmax=69 / qpstep=4 / vbv_maxrate=50000 / vbv_bufsize=62500 / crf_max=0.0 / nal_hrd=none / filler=0 / ip_ratio=1.40 / pb_ratio=1.30 / aq=3:0.90Language : EnglishDefault : YesForced : NoColor primaries : BT.709Transfer characteristics : BT.709Matrix coefficients : BT.709
Audio #1ID : 2Format : AC-3Format/Info : Audio Coding 3Mode extension : CM (complete main)Format settings, Endianness : BigCodec ID : A_AC3Duration : 1h 19mnBit rate mode : ConstantBit rate : 384 KbpsChannel(s) : 6 channelsChannel positions : Front: L C R, Side: L R, LFESampling rate : 48.0 KHzBit depth : 16 bitsCompression mode : LossyStream size : 218 MiB (3%)Title : AC3, 6 ch, 48 kHz, 384 kbps - ДубляжLanguage : RussianDefault : YesForced : No
Audio #2ID : 3Format : DTSFormat/Info : Digital Theater SystemsMode : 16Format settings, Endianness : BigCodec ID : A_DTSDuration : 1h 19mnBit rate mode : ConstantBit rate : 1 509 KbpsChannel(s) : 6 channelsChannel positions : Front: L C R, Side: L R, LFESampling rate : 48.0 KHzBit depth : 16 bitsCompression mode : LossyStream size : 858 MiB (13%)Title : DTS / 5.1 / 48 kHz / 1509 kbps / 16 bit - OriginalLanguage : EnglishDefault : NoForced : No
Text #1ID : 4Format : UTF-8Codec ID : S_TEXT/UTF8Codec ID/Info : UTF-8 Plain TextTitle : SRT, FullLanguage : EnglishDefault : NoForced : No
Text #2ID : 5Format : UTF-8Codec ID : S_TEXT/UTF8Codec ID/Info : UTF-8 Plain TextTitle : SRT, (SDH)Language : EnglishDefault : NoForced : No
Menu00:00:00.000 : en:1. Mariposa00:08:12.825 : en:2. Flutterflower00:13:49.537 : en:3. Welcome to Shimmervale00:17:26.336 : en:4. Guest Room00:22:46.615 : en:5. Tea Time00:29:07.620 : en:6. Fairies of Shimmervale00:36:48.456 : en:7. The Heartstone00:41:00.207 : en:8. Glow Water Falls00:48:22.691 : en:9. The Crystal Ball00:56:04.986 : en:10. The Gwyllion!01:06:16.305 : en:11. Too Late?01:11:47.386 : en:12. Dance Party!

Скриншоты

Скриншот с названием мультфильма
--BDRip 1080p


Source BDRemux

Релиз от групп | and | -Данный релиз не будет воспроизводиться на бытовых плеерах не поддерживающих MKV и H.264Обсуждение релизов в AVC формате || Свежие AVC рипы

_________________
Показать сообщения:    

Текущее время: Сегодня 20:55

Часовой пояс: GMT



Вы не можете начинать темы
Вы не можете отвечать на сообщения
Вы не можете редактировать свои сообщения
Вы не можете удалять свои сообщения
Вы не можете голосовать в опросах
Вы не можете прикреплять файлы к сообщениям
Вы не можете скачивать файлы