Ивановский Торрент трекер
Яндекс.Погода
DL-List and Torrent activity
None
 
     
 
style="text-align: center"
 

[Quote]
HUNTER

Барби и волшебные дельфины
Barbie: Dolphin Magic
Год выпуска: 2017
Страна: США
Жанр: мультфильм, фэнтези, приключения, семейный
Продолжительность: 01:03:28
Перевод: Профессиональный (Дублированный)
русские субтитры: нет-Режиссёр: Майкл Дуглас / Michael Douglas, Конрад Хилтен / Conrad Helten-Роли озвучивали: Эрика Линдбек, Шеннон Чан-Кент, Клер Маргарет Корлетт, Alyssya Swales, Адриан Петрив, Марика Хендрикс, Пол Добсон, Гари Чок-Описание: В новом приключении Барби и ее сестры изучают яркий подводный мир и знакомятся с удивительными дельфинами.
Барби и девочки отправляются посетить Кена на его летней стажировке, где он работает на коралловом рифе, проводя исследования и наблюдая за дельфинами. Во время погружения в океан и изучения рифа сестры встречают редких радужных дельфинов, которые посещают это место только один раз в год. Эта удивительная встреча пробуждает у девочек желание больше узнать о сохранении кораллов и обо всех морских обитателях, которые в них обитают. Похоже, Барби и ее сестер ожидает очередное захватывающее приключение!- релиз: -- Большое спасибо SLuMeP за запись DVB дубляжа
- За работу со звуком большое спасибо *Sergeant_am*
- Работа с WEB-DL -Azureus--Качество: WEBRip 1080p
Формат: MKV
Видео кодек: AVC
Аудио кодек: AC3
Видео: 1920x1080, 23,976 fps, ~6190 kbps avg, 0.125 bit/pixel
Аудио #1: [RUS] 48 kHz, AC3 Dolby Digital, 2/0 (L,R) ch, ~192 kbps
Аудио #2: [ENG] 48 kHz, AC3 Dolby Digital, 3/2 (L,C,R,l,r) + LFE ch, ~384 kbps avg
субтитры: английские

MI

Общее
Уникальный идентификатор : 172446832088086530729588858157539231934 (0x81BC0D41041C86658373B4DE403B88BE)
Полное имя : D:\Mult\Barbie. Dolphin Magic.2017.WEBRip 1080p.mkv
Формат : Matroska
Версия формата : Version 4 / Version 2
Размер файла : 2,91 Гбайт
Продолжительность : 1 ч. 3 м.
Режим общего битрейта : Переменный
Общий поток : 6558 Кбит/сек
Название фильма : Barbie: Dolphin Magic.2017.WEBRip 1080p -Azureus-
Дата кодирования : UTC 2018-01-13 15:32:49
Программа кодирования : mkvmerge v13.0.0 ('The Juggler') 64bit
Библиотека кодирования : libebml v1.3.4 + libmatroska v1.4.5
Видео
Идентификатор : 1
Формат : AVC
Формат/Информация : Advanced Video Codec
Профиль формата : Main@L4
Настройки формата : CABAC / 3 Ref Frames
Параметр CABAC формата : Да
Параметр RefFrames формата : 3 кадра
Идентификатор кодека : V_MPEG4/ISO/AVC
Продолжительность : 1 ч. 3 м.
Вид битрейта : Переменный
Битрейт : 6190 Кбит/сек
Максимальный битрейт : 9285 Кбит/сек
Ширина : 1920 пикселей
Высота : 1080 пикселей
Соотношение сторон : 16:9
Режим частоты кадров : Постоянный
Частота кадров : 23,976 (24000/1001) кадра/сек
Цветовое пространство : YUV
Субдискретизация насыщенности : 4:2:0
Битовая глубина : 8 бит
Тип развёртки : Прогрессивная
Бит/(Пиксели*Кадры) : 0.125
Размер потока : 2,65 Гбайт (91%)
Библиотека кодирования : x264 core 118
Настройки программы : cabac=1 / ref=3 / deblock=1:0:0 / analyse=0x1:0x111 / me=umh / subme=10 / psy=1 / psy_rd=1.00:0.00 / mixed_ref=1 / me_range=24 / chroma_me=1 / trellis=2 / 8x8dct=0 / cqm=0 / deadzone=21,11 / fast_pskip=1 / chroma_qp_offset=-2 / threads=8 / sliced_threads=0 / nr=0 / decimate=1 / interlaced=0 / bluray_compat=0 / constrained_intra=0 / bframes=2 / b_pyramid=0 / b_adapt=2 / b_bias=0 / direct=3 / weightb=1 / open_gop=0 / weightp=2 / keyint=48 / keyint_min=25 / scenecut=0 / intra_refresh=0 / rc_lookahead=0 / rc=2pass / mbtree=1 / bitrate=6190 / ratetol=1.0 / qcomp=0.50 / qpmin=6 / qpmax=51 / qpstep=4 / cplxblur=20.0 / qblur=0.5 / vbv_maxrate=9285 / vbv_bufsize=12380 / nal_hrd=vbr / ip_ratio=1.40 / aq=1:1.00
Язык : English
Default : Да
Forced : Нет
Аудио #1
Идентификатор : 2
Формат : AC-3
Формат/Информация : Audio Coding 3
Идентификатор кодека : A_AC3
Продолжительность : 1 ч. 3 м.
Вид битрейта : Постоянный
Битрейт : 192 Кбит/сек
Каналы : 2 канала
Расположение каналов : Front: L R
Частота : 48,0 КГц
Частота кадров : 31,250 кадров/сек (1536 SPF)
Битовая глубина : 16 бит
Метод сжатия : С потерями
Размер потока : 87,2 Мбайт (3%)
Заголовок : DUB
Язык : Russian
ServiceKind/String : Complete Main
Default : Да
Forced : Нет
Аудио #2
Идентификатор : 3
Формат : AC-3
Формат/Информация : Audio Coding 3
Идентификатор кодека : A_AC3
Продолжительность : 1 ч. 3 м.
Вид битрейта : Постоянный
Битрейт : 384 Кбит/сек
Каналы : 6 каналов
Расположение каналов : Front: L C R, Side: L R, LFE
Частота : 48,0 КГц
Частота кадров : 31,250 кадров/сек (1536 SPF)
Битовая глубина : 16 бит
Метод сжатия : С потерями
Размер потока : 174 Мбайт (6%)
Заголовок : ENG
Язык : English
ServiceKind/String : Complete Main
Default : Нет
Forced : Нет
Текст
Идентификатор : 4
Формат : UTF-8
Идентификатор кодека : S_TEXT/UTF8
Идентификатор кодека/Информация : UTF-8 Plain Text
Продолжительность : 1 ч. 2 м.
Битрейт : 83 бит/сек
ElementCount : 1696
Размер потока : 38,4 Кбайт (0%)
Заголовок : Eng Sub
Язык : English
Default : Нет
Forced : Нет


Display posts:    

Current time is: 26-Aug 02:29

All times are UTC ± 0


You cannot post new topics in this forum
You cannot reply to topics in this forum
You cannot edit your posts in this forum
You cannot delete your posts in this forum
You cannot vote in polls in this forum
You cannot attach files in this forum
You cannot download files in this forum

!ATTENTION!
The site does not give electronic versions of products, and is engaged only in a collecting and cataloguing of the references sent and published at a forum by our readers. If you are the legal owner of any submitted material and do not wish that the reference to it was in our catalogue, contact us and we shall immediately remove her. Files for an exchange on tracker are given by users of a site, and the administration does not bear the responsibility for their maintenance. The request to not fill in the files protected by copyrights, and also files of the illegal maintenance!