Ивановский Торрент трекер
Яндекс.Погода
 

[Цитировать]
HUNTER

Armin van Buuren - LIVE in Miami USA
-Год производства: 2012 г.
Страна: USA
Жанр: trance
Продолжительность: 00:59:56-Описание: «В рамках UMF 2012 состоялось выступление Армина и команды. Армин на сцену UMF выходил дважды: первый раз в рамках A State of Trance, второй - в качестве хэдлайнера фестиваля. ULTRA MUSIC FESTIVAL XIV представляет LINE-UP трехдневного мероприятия (с 23 по 25 марта) в парке Bayfront (Майами): TIESTO, KRAFTWERK, JUSTICE, AVICII, DAVID GUETTA и ARMIN VAN BUUREN как хедлайнеры, ALONG WITH CARL COX, SKRILLEX, AFROJACK, MIIKE SNOW, NEW ORDER, FATBOY SLIM, DUCK SAUCE, M83., KASKADE и другие.»
-Качество видео: HDTVRip 720p
Формат видео: mkv
Видео кодек: AVC
Аудио кодек: MP2
Видео: 4 999 Kbps, 1280x720 pixels, 29.970 fps, 0.181 Bits
Аудио: 48 kHz, 2 ch, ~384 kb/s avg
-

Треклист

01. Omnia & Ira - The Fusion (Armin van Buuren's Intro Edit)
02. Cosmic Gate & Emma Hewitt - Be Your Sound
03. Armin van Buuren vs. Sophie Ellis-Bextor – Not Giving Up On Love (Dash Berlin 4AM Mix)
04. The Killers - Mr Brightside (Marco V Treatment)
05. W&W - Impact (MaRLo Remix)
06. Gaia - J'ai Envie De Toi
07. Armin van Buuren & Orjan Nilsen - Belter
08. Ferry Corsten vs. Armin van Buuren - Brute (Armin's Illegal Drum Edit)
09. Gareth Emery feat. Christina Novelli - Concrete Angel (John O'Callaghan Remix)
10. Dakota vs. Marcel Woods – Advanced Sleepwalkers (Armin van Buuren Mashup)
11. John O'Callaghan - Stresstest (John Askew Remix) (AvB Edit)
12. Armin van Buuren feat. Sharon den Adel vs. John O'Callaghan - In & Out Of A Raw Deal (Armin van Buuren Mashup)

Скриншоты

MediaInfo

Код: copyText_writeLink('this.parentNode.parentNode.nextSibling.nextSibling');
General
Unique ID : 171996310896948974751541308326357343112 (0x816548D824373DE49BFF7E50D1999B88)
Complete name : D:\Торенты\Armin.van.Buuren-LIVE.in.Miami.USA.(25.March.2012).mkv
Format : Matroska
Format version : Version 2
File size : 2.25 GiB
Duration : 59mn 56s
Overall bit rate : 5 384 Kbps
Encoded date : UTC 2012-04-04 12:02:21
Writing application : mkvmerge v5.0.1 ('Es ist Sommer') built on Oct 9 2011 11:55:43
Writing library : libebml v1.2.2 + libmatroska v1.3.0
Video
ID : 1
Format : AVC
Format/Info : Advanced Video Codec
Format profile : High@L4.1
Format settings, CABAC : Yes
Format settings, ReFrames : 4 frames
Codec ID : V_MPEG4/ISO/AVC
Duration : 59mn 56s
Bit rate : 4 999 Kbps
Width : 1 280 pixels
Height : 720 pixels
Display aspect ratio : 16:9
Frame rate : 29.970 fps
Color space : YUV
Chroma subsampling : 4:2:0
Bit depth : 8 bits
Scan type : Progressive
Bits/(Pixel*Frame) : 0.181
Stream size : 2.05 GiB (91%)
Writing library : x264 core 119 r2106 07efeb4
Encoding settings : cabac=1 / ref=3 / deblock=1:0:0 / analyse=0x3:0x113 / me=hex / subme=7 / psy=1 / psy_rd=1.00:0.00 / mixed_ref=1 / me_range=16 / chroma_me=1 / trellis=1 / 8x8dct=1 / cqm=0 / deadzone=21,11 / fast_pskip=1 / chroma_qp_offset=-2 / threads=3 / sliced_threads=0 / nr=0 / decimate=1 / interlaced=0 / bluray_compat=0 / constrained_intra=0 / bframes=3 / b_pyramid=2 / b_adapt=1 / b_bias=0 / direct=1 / weightb=1 / open_gop=0 / weightp=2 / keyint=100 / keyint_min=10 / scenecut=40 / intra_refresh=0 / rc_lookahead=40 / rc=2pass / mbtree=1 / bitrate=4999 / ratetol=1.0 / qcomp=0.60 / qpmin=0 / qpmax=69 / qpstep=4 / cplxblur=20.0 / qblur=0.5 / vbv_maxrate=20000 / vbv_bufsize=25000 / nal_hrd=none / ip_ratio=1.40 / aq=1:1.00
Default : Yes
Forced : No
Audio
ID : 2
Format : MPEG Audio
Format version : Version 1
Format profile : Layer 2
Codec ID : A_MPEG/L2
Codec ID/Hint : MP2
Duration : 59mn 56s
Bit rate mode : Constant
Bit rate : 384 Kbps
Channel(s) : 2 channels
Sampling rate : 48.0 KHz
Compression mode : Lossy
Stream size : 165 MiB (7%)
Language : English
Default : Yes
Forced : No
Group of music принимает заявки в стол заказов


Показать сообщения:    

Текущее время: 15-Дек 20:01

Часовой пояс: UTC ± 0


Вы не можете начинать темы
Вы не можете отвечать на сообщения
Вы не можете редактировать свои сообщения
Вы не можете удалять свои сообщения
Вы не можете голосовать в опросах
Вы не можете прикреплять файлы к сообщениям
Вы не можете скачивать файлы

!ВНИМАНИЕ!
Сайт не предоставляет электронные версии произведений, а занимается лишь коллекционированием и каталогизацией ссылок, присылаемых и публикуемых на форуме нашими читателями. Если вы являетесь правообладателем какого-либо представленного материала и не желаете, чтобы ссылка на него находилась в нашем каталоге, свяжитесь с нами, и мы незамедлительно удалим ее. Файлы для обмена на трекере предоставлены пользователями сайта, и администрация не несет ответственности за их содержание. Просьба не заливать файлы, защищенные авторскими правами, а также файлы нелегального содержания!