Ивановский Торрент трекер
Яндекс.Погода
 

[Цитировать]
HUNTER

Anthony Robbins - Total Breakthrough Training
Страна: США
Тематика: коучинг, психология, нлп
Тип раздаваемого материала: Видеоурок
Продолжительность: 58:42:43
Год выпуска: 2014
Язык: Английский
Перевод: Отсутствует
Описание:
Учитесь у Тони Роббинса, как он работает с людьми и семьями. Будучи студентом Total Breakthrough, у вас будет доступ к никогда ранее не показанным материалам, когда Тони сосредотачивает внимание на всей семье, супружеской паре, а окружающая среда влияет на цель, понимание и счастье. Total Breakthrough учит вас, как преобразовать жизнь клиента.

English Description

Learn the secrets behind Tony’s real coaching work.
Learn from Tony Robbins as he works with individuals and families outside of the event environment. As a Total Breakthrough student you will have access to never before seen interventions where Tony focuses on the whole family, couple and the way environment affects our purpose, understanding and happiness. Total Breakthrough training teaches you how to transform a client’s life.
You will learn about the entire breakthrough process from beginning to end. Through the amazing work that Tony does and the way that the RMT Master Teachers explain and demonstrate how you can create the same results in the lives of those you coach.
Sharpen your coaching skills through your work with fellow students who are learning and growing with you. Nothing works like doing so at RMT we make sure you do a lot of coaching.
Friendship and community matter so when you need it you have it. This could mean live discussions, written discussions, shared experiences or coaching conversations. We believe in connection and so we make it easy for you to become part of the family at RMT.
Bonuses:
Marketing make over classes. Designed to show you how to make the entrepreneur in you come out and succeed.
SI Solutions:
In these classes you learn the skills you need to work with couples, anxiety, businesses, and parenting.
22 Breakthrough Teleclasses with Cloe Madanes, Mark Peysha, and Magali Peysha. Classes that cover the step by step strategies witch give you the tool kit for breakthrough coaching.
Total Breakthrough Training includes :
Over 30 hours of video with Tony Robbins coaching clients
Learn to create Breakthroughs with every client
Step by step strategies explained
22 classes with master teachers
- -Качество: WEBrip
Формат: MP4
Видео кодек: H.264
Аудио кодек: AAC
Видео: AVC, 640x480, 4:3, 800 kb/s, 25.000 FPS
Аудио: AAC, 128 kb/s, 44.1 kHz, 2 channels

MediaInfo

Complete name : 01 Georgia & Robert 122813_FP V2.mp4
Format : MPEG-4
Codec ID : M4V (isom/iso2/avc1)
File size : 549 MiB
Duration : 1 h 21 min
Overall bit rate : 937 kb/s
Season : 0
Movie name : 01 Georgia & Robert 122813_FP V2
Part : 0
Performer : www.getwsodownload.com
ContentType : Short Film
Description : www.getwsodownload.com
Encoded date : UTC 2013-12-29 09:13:04
Tagged date : UTC 2017-01-19 14:09:48
Writing application : Lavf53.32.100
Comment : www.getwsodownload.com
LongDescription : www.getwsodownload.com
Keyword : www.getwsodownload.com
AppleStoreCatalogID : 0
Video
ID : 1
Format : AVC
Format/Info : Advanced Video Codec
Format profile : Baseline@L3
Format settings, CABAC : No
Format settings, RefFrames : 1 frame
Codec ID : avc1
Codec ID/Info : Advanced Video Coding
Duration : 1 h 21 min
Bit rate : 800 kb/s
Width : 640 pixels
Height : 480 pixels
Display aspect ratio : 4:3
Frame rate mode : Constant
Frame rate : 25.000 FPS
Color space : YUV
Chroma subsampling : 4:2:0
Bit depth : 8 bits
Scan type : Progressive
Bits/(Pixel*Frame) : 0.104
Stream size : 468 MiB (85%)
Writing library : x264 core 122
Encoding settings : cabac=0 / ref=1 / deblock=1:0:0 / analyse=0x1:0x111 / me=umh / subme=8 / psy=0 / mixed_ref=0 / me_range=16 / chroma_me=1 / trellis=1 / 8x8dct=0 / cqm=0 / deadzone=21,11 / fast_pskip=1 / chroma_qp_offset=0 / threads=2 / sliced_threads=0 / nr=0 / decimate=1 / interlaced=0 / bluray_compat=0 / constrained_intra=0 / bframes=0 / weightp=0 / keyint=300 / keyint_min=25 / scenecut=40 / intra_refresh=0 / rc_lookahead=40 / rc=abr / mbtree=1 / bitrate=800 / ratetol=1.0 / qcomp=0.60 / qpmin=10 / qpmax=51 / qpstep=4 / vbv_maxrate=10000 / vbv_bufsize=10000 / nal_hrd=none / ip_ratio=1.40 / aq=1:1.00
Language : English
Encoded date : UTC 2013-12-29 09:13:04
Tagged date : UTC 2013-12-29 09:13:04
Menus : 3
Audio
ID : 2
Format : AAC
Format/Info : Advanced Audio Codec
Format profile : LC
Codec ID : 40
Duration : 1 h 21 min
Bit rate mode : Constant
Bit rate : 128 kb/s
Channel(s) : 2 channels
Channel positions : Front: L R
Sampling rate : 44.1 kHz
Frame rate : 43.066 FPS (1024 SPF)
Compression mode : Lossy
Stream size : 74.9 MiB (14%)
Language : English
Default : Yes
Alternate group : 1
Encoded date : UTC 2013-12-29 09:13:04
Tagged date : UTC 2013-12-29 09:13:04
Menu
ID : 3
Codec ID : text
Duration : 1 h 21 min
Encoded date : UTC 2017-01-19 14:09:48
Tagged date : UTC 2017-01-19 14:09:48
Menu For : 1
00:00:00.000 : Chapter 1

Скриншоты



Показать сообщения:    

Текущее время: 23-Апр 04:02

Часовой пояс: UTC ± 0


Вы не можете начинать темы
Вы не можете отвечать на сообщения
Вы не можете редактировать свои сообщения
Вы не можете удалять свои сообщения
Вы не можете голосовать в опросах
Вы не можете прикреплять файлы к сообщениям
Вы не можете скачивать файлы

!ВНИМАНИЕ!
Сайт не предоставляет электронные версии произведений, а занимается лишь коллекционированием и каталогизацией ссылок, присылаемых и публикуемых на форуме нашими читателями. Если вы являетесь правообладателем какого-либо представленного материала и не желаете, чтобы ссылка на него находилась в нашем каталоге, свяжитесь с нами, и мы незамедлительно удалим ее. Файлы для обмена на трекере предоставлены пользователями сайта, и администрация не несет ответственности за их содержание. Просьба не заливать файлы, защищенные авторскими правами, а также файлы нелегального содержания!