Ивановский Торрент трекер
Яндекс.Погода
 

[Цитировать]
HUNTER

Аномализа / Anomalisa«Welcome to the Kaufman surreal-neorealism tale in a dull world of sameness»- Страна: США
Студии: Paramount Pictures, Starburns Industries, Snoot Entertainment
Жанр: Мультфильм, драма, мелодрама, комедия
Год выпуска: 2015-Дата мировой премьеры: 4 сентября 2015
Дата выхода DVD релиза: 23 мая 2016, «Новый Диск»-Продолжительность: 01:26:56
Перевод: Профессиональный (дублированный) [Лицензия]
Субтитры: Английские, чешские, эстонские, иврит, хинди, венгерские, исландские, латышские, литовские, польские, португальские, румынские, русские, словацкие, украинские
Оригинальная аудиодорожка: английская-Режиссер: Дьюк Джонсон, Чарли Кауфман / Duke Johnson, Charlie Kaufman
Продюсеры: Дьюк Джонсон, Чарли Кауфман, Дино Стаматопулос
Роли озвучивали: Дэвид Тьюлис, Дженнифер Джейсон Ли, Том Нунен-Описание:
Майкл Стоун, автор книг по обслуживанию клиентов, страдает от неспособности контактировать с людьми. Однажды, в ходе очередной рабочей поездки, он встречает незнакомку, которая меняет его мировосприятие.
Доп. материалы: Интимность в миниатюре, Звучание беспокойства- -Качество: DVD9 R5
Формат: DVD-Video
Видео: MPEG-2, 720x576@1024x576 (PAL 16:9), ~7400 Кбит/сек
Аудио 1: AC3 5.1, 448 Кбит/сек [Английский - оригинал]
Аудио 2: AC3 5.1, 448 Кбит/сек [Чешский - дублированный]
Аудио 3: AC3 5.1, 448 Кбит/сек [Польский - одноголосый закадровый]
Аудио 4: AC3 5.1, 448 Кбит/сек [Русский - дублированный]

DVDInfo

Title: Anomalisa (2015) DVD9 R5
Size: 6.46 Gb ( 6 770 990,00 KBytes ) - DVD-9
Enabled regions: 1, 2, 3, 4, 5, 6, 7, 8
VTS_01 :
Play Length: 01:26:56
Video: PAL 16:9 (720x576) VBR, Auto Letterboxed
Audio:
English, AC3, 3/2 (L,C,R,SL,SR)+LFE ch, 448 kbps, Delay 0 mSec
Czech(Ceske), AC3, 3/2 (L,C,R,SL,SR)+LFE ch, 448 kbps, Delay 0 mSec
Polish, AC3, 3/2 (L,C,R,SL,SR)+LFE ch, 448 kbps, Delay 0 mSec
Russian, AC3, 3/2 (L,C,R,SL,SR)+LFE ch, 448 kbps, Delay 0 mSec
Subtitles:
English
Czech(Ceske)
Estonian
Hebrew
Hindi
Magyar
Islenska
Latvian
Lithuanian
Polish
Portugues
Romanian
Russian
Slovak
Ukrainian
VTS_02 :
Play Length: 00:09:00+00:05:29
Video: PAL 16:9 (720x576) VBR, Auto Letterboxed
Audio:
English (Dolby AC3, 2 ch)
Subtitles:
English
Czech(Ceske)
Estonian
Hebrew
Hindi
Magyar
Islenska
Latvian
Lithuanian
Polish
Portugues
Romanian
Russian
Slovak
Ukrainian
VTS_03 :
Play Length: 00:00:00
Video: PAL 16:9 (720x576) VBR, Auto Letterboxed
VTS_04 :
Play Length: 00:00:00
Video: PAL 16:9 (720x576) VBR, Auto Letterboxed
VTS_05 :
Play Length: 00:00:00+00:00:00
Video: PAL 16:9 (720x576) VBR, Auto Letterboxed
VTS_06 :
Play Length: 00:00:24
Video: PAL 16:9 (720x576) VBR, Auto Pan&Scan
Audio:
Not specified (Dolby AC3, 2 ch)
VTS_07 :
Play Length: 00:00:10+00:00:10+00:00:15
Video: PAL 16:9 (720x576) VBR, Auto Letterboxed
Audio:
Not specified (Dolby AC3, 2 ch)
VTS_08 :
Play Length: 00:00:00+00:00:05+00:00:05+00:00:05+00:00:05+00:00:05+00:00:05+00:00:05+00:00:05+00:00:05+00:00:05+00:00:05+00:00:05+00:00:05+00:00:05+00:00:05+00:00:05+00:00:05+00:00:05+00:00:05+00:00:05+00:00:05+00:00:05+00:00:05+00:00:05+00:00:05+00:00:05+00:00:05
Video: PAL 16:9 (720x576) VBR, Auto Pan&Scan
Audio:
Not specified (Dolby AC3, 2 ch)
VTS_09 :
Play Length: 00:00:00+00:00:05+00:00:05+00:00:05+00:00:05+00:00:05+00:00:05+00:00:05+00:00:05+00:00:05+00:00:05+00:00:05+00:00:05+00:00:05+00:00:05+00:00:05+00:00:05+00:00:05+00:00:05+00:00:05+00:00:05+00:00:05+00:00:05+00:00:05+00:00:05+00:00:05+00:00:05+00:00:05+00:00:05+00:00:05+00:00:05+00:00:05+00:00:05+00:00:05
Video: PAL 16:9 (720x576) VBR, Auto Pan&Scan
Audio:
Not specified (Dolby AC3, 2 ch)
VTS_10 :
Play Length: 00:00:00+00:00:05+00:00:05+00:00:05+00:00:05+00:00:05+00:00:05+00:00:05+00:00:05+00:00:05+00:00:05+00:00:05+00:00:05+00:00:05+00:00:05+00:00:05+00:00:05+00:00:05+00:00:05+00:00:05+00:00:05+00:00:05+00:00:05+00:00:05+00:00:05+00:00:05+00:00:05+00:00:05+00:00:05+00:00:05+00:00:05+00:00:05+00:00:05
Video: PAL 16:9 (720x576) VBR, Auto Pan&Scan
Audio:
Not specified (Dolby AC3, 2 ch)
VTS_11 :
Play Length: 00:00:00+00:00:00
Video: PAL 16:9 (720x576) VBR, Auto Letterboxed
VTS_12 :
Play Length: 00:00:00+00:00:00
Video: PAL 16:9 (720x576) VBR, Auto Pan&Scan

MediaInfo

Общее
Полное имя : G:\Torrents\Anomalisa (2015) DVD9 R5\VIDEO_TS\VTS_01_2.VOB
Формат : MPEG-PS
Размер файла : 1024 Мбайт
Продолжительность : 15 м. 11 с.
Режим общего битрейта : Переменный
Общий поток : 9425 Кбит/сек
Видео
Идентификатор : 224 (0xE0)
Формат : MPEG Video
Версия формата : Version 2
Профиль формата : Main@Main
Настройки формата : CustomMatrix / BVOP
Параметр BVOP формата : Да
Параметр матрицы формата : Выборочная
Параметр GOP формата : Variable
Продолжительность : 15 м. 11 с.
Вид битрейта : Переменный
Битрейт : 7445 Кбит/сек
Максимальный битрейт : 9800 Кбит/сек
Ширина : 720 пикселей
Высота : 576 пикселей
Соотношение сторон : 16:9
Частота кадров : 25,000 кадров/сек
Стандарт вещания : PAL
Цветовое пространство : YUV
Субдискретизация насыщенности : 4:2:0
Битовая глубина : 8 бит
Тип развёртки : Прогрессивная
Порядок развёртки : Верхнее поле первое
Метод сжатия : С потерями
Бит/(Пиксели*Кадры) : 0.718
Временной код первого кадра : 01:15:14:15
Оригинал временного кода : Group of pictures header
GOP, открыто/закрыто : Открыто
Размер потока : 809 Мбайт (79%)
Аудио #1
Идентификатор : 189 (0xBD)-128 (0x80)
Формат : AC-3
Формат/Информация : Audio Coding 3
Параметр Endianness формата : Big
Режим смешивания : DVD-Video
Продолжительность : 15 м. 11 с.
Вид битрейта : Постоянный
Битрейт : 448 Кбит/сек
Каналы : 6 каналов
Расположение каналов : Front: L C R, Side: L R, LFE
Частота : 48,0 КГц
Частота кадров : 31,250 кадров/сек (1536 SPF)
Битовая глубина : 16 бит
Метод сжатия : С потерями
Задержка видео : -296 мс.
Размер потока : 48,7 Мбайт (5%)
ServiceKind/String : Complete Main
Аудио #2
Идентификатор : 189 (0xBD)-129 (0x81)
Формат : AC-3
Формат/Информация : Audio Coding 3
Параметр Endianness формата : Big
Режим смешивания : DVD-Video
Продолжительность : 15 м. 11 с.
Вид битрейта : Постоянный
Битрейт : 448 Кбит/сек
Каналы : 6 каналов
Расположение каналов : Front: L C R, Side: L R, LFE
Частота : 48,0 КГц
Частота кадров : 31,250 кадров/сек (1536 SPF)
Битовая глубина : 16 бит
Метод сжатия : С потерями
Задержка видео : -296 мс.
Размер потока : 48,7 Мбайт (5%)
ServiceKind/String : Complete Main
Аудио #3
Идентификатор : 189 (0xBD)-130 (0x82)
Формат : AC-3
Формат/Информация : Audio Coding 3
Параметр Endianness формата : Big
Режим смешивания : DVD-Video
Продолжительность : 15 м. 11 с.
Вид битрейта : Постоянный
Битрейт : 448 Кбит/сек
Каналы : 6 каналов
Расположение каналов : Front: L C R, Side: L R, LFE
Частота : 48,0 КГц
Частота кадров : 31,250 кадров/сек (1536 SPF)
Битовая глубина : 16 бит
Метод сжатия : С потерями
Задержка видео : -296 мс.
Размер потока : 48,7 Мбайт (5%)
ServiceKind/String : Complete Main
Аудио #4
Идентификатор : 189 (0xBD)-131 (0x83)
Формат : AC-3
Формат/Информация : Audio Coding 3
Параметр Endianness формата : Big
Режим смешивания : DVD-Video
Продолжительность : 15 м. 11 с.
Вид битрейта : Постоянный
Битрейт : 448 Кбит/сек
Каналы : 6 каналов
Расположение каналов : Front: L C R, Side: L R, LFE
Частота : 48,0 КГц
Частота кадров : 31,250 кадров/сек (1536 SPF)
Битовая глубина : 16 бит
Метод сжатия : С потерями
Задержка видео : -296 мс.
Размер потока : 48,7 Мбайт (5%)
ServiceKind/String : Complete Main
Текст #1
Идентификатор : 189 (0xBD)-32 (0x20)
Формат : RLE
Формат/Информация : Run-length encoding
Режим смешивания : DVD-Video
Задержка видео : 2 с. 120 мс.
Текст #2
Идентификатор : 189 (0xBD)-33 (0x21)
Формат : RLE
Формат/Информация : Run-length encoding
Режим смешивания : DVD-Video
Задержка видео : 2 с. 200 мс.
Текст #3
Идентификатор : 189 (0xBD)-34 (0x22)
Формат : RLE
Формат/Информация : Run-length encoding
Режим смешивания : DVD-Video
Задержка видео : 2 с. 120 мс.
Текст #4
Идентификатор : 189 (0xBD)-35 (0x23)
Формат : RLE
Формат/Информация : Run-length encoding
Режим смешивания : DVD-Video
Задержка видео : 2 с. 200 мс.
Текст #5
Идентификатор : 189 (0xBD)-36 (0x24)
Формат : RLE
Формат/Информация : Run-length encoding
Режим смешивания : DVD-Video
Задержка видео : 2 с. 120 мс.
Текст #6
Идентификатор : 189 (0xBD)-37 (0x25)
Формат : RLE
Формат/Информация : Run-length encoding
Режим смешивания : DVD-Video
Задержка видео : 2 с. 200 мс.
Текст #7
Идентификатор : 189 (0xBD)-38 (0x26)
Формат : RLE
Формат/Информация : Run-length encoding
Режим смешивания : DVD-Video
Задержка видео : 2 с. 200 мс.
Текст #8
Идентификатор : 189 (0xBD)-39 (0x27)
Формат : RLE
Формат/Информация : Run-length encoding
Режим смешивания : DVD-Video
Задержка видео : 2 с. 120 мс.
Текст #9
Идентификатор : 189 (0xBD)-40 (0x28)
Формат : RLE
Формат/Информация : Run-length encoding
Режим смешивания : DVD-Video
Задержка видео : 2 с. 120 мс.
Текст #10
Идентификатор : 189 (0xBD)-41 (0x29)
Формат : RLE
Формат/Информация : Run-length encoding
Режим смешивания : DVD-Video
Задержка видео : 2 с. 200 мс.
Текст #11
Идентификатор : 189 (0xBD)-42 (0x2A)
Формат : RLE
Формат/Информация : Run-length encoding
Режим смешивания : DVD-Video
Задержка видео : 2 с. 240 мс.
Текст #12
Идентификатор : 189 (0xBD)-43 (0x2B)
Формат : RLE
Формат/Информация : Run-length encoding
Режим смешивания : DVD-Video
Задержка видео : 2 с. 120 мс.
Текст #13
Идентификатор : 189 (0xBD)-44 (0x2C)
Формат : RLE
Формат/Информация : Run-length encoding
Режим смешивания : DVD-Video
Задержка видео : 2 с. 280 мс.
Текст #14
Идентификатор : 189 (0xBD)-45 (0x2D)
Формат : RLE
Формат/Информация : Run-length encoding
Режим смешивания : DVD-Video
Задержка видео : 2 с. 120 мс.
Текст #15
Идентификатор : 189 (0xBD)-46 (0x2E)
Формат : RLE
Формат/Информация : Run-length encoding
Режим смешивания : DVD-Video
Задержка видео : 2 с. 120 мс.
Меню
-

Скриншоты меню

Скриншоты доп. материалов

Скриншоты фильма

-За предоставленный DVD спасибо большое AKIM2B-Раздаю с 10:00 до 23:00 до 10 скачавших.


Показать сообщения:    

Текущее время: 21-Сен 14:00

Часовой пояс: UTC ± 0


Вы не можете начинать темы
Вы не можете отвечать на сообщения
Вы не можете редактировать свои сообщения
Вы не можете удалять свои сообщения
Вы не можете голосовать в опросах
Вы не можете прикреплять файлы к сообщениям
Вы не можете скачивать файлы

!ВНИМАНИЕ!
Сайт не предоставляет электронные версии произведений, а занимается лишь коллекционированием и каталогизацией ссылок, присылаемых и публикуемых на форуме нашими читателями. Если вы являетесь правообладателем какого-либо представленного материала и не желаете, чтобы ссылка на него находилась в нашем каталоге, свяжитесь с нами, и мы незамедлительно удалим ее. Файлы для обмена на трекере предоставлены пользователями сайта, и администрация не несет ответственности за их содержание. Просьба не заливать файлы, защищенные авторскими правами, а также файлы нелегального содержания!