Важное объявление!
У Нас Все раздачи мультитрекерные, при нуле пиров в релизах, можете смело вставать на закачку!
 
Автор Сообщение

HUNTER

Стаж:
4 года 4 месяца
Сообщений:
56808

Репутация: 101

[+] [-]
Вне форума [Профиль] [ЛС]

Angry Birds в кино / The Angry Birds Movie«Что такие сердитые?»-
Страна: США, Финляндия
Жанр: мультфильм, боевик, комедия, семейный
Продолжительность: 01:37:14
Год выпуска: 2016
Перевод: Профессиональный (дублированный) (iTunes)
Субтитры: русские (форс., полн.), английские (полн., SDH)-Режиссёр: Клэй Кэйтис / Clay Kaytis, Фергал Рейли / Fergal Reilly
Роли озвучивали: Питер Динклэйдж, Джейсон Судейкис, Кейт МакКиннон, Кигэн-Майкл Ки, Титус Берджесс, Шон Пенн, Билл Хейдер, Майя Рудольф, Айк Баринхолц, Дэнни МакБрайд
Описание: Фильм расскажет о том, как началось знаменитое противостояние птичек и свинок, персонажей популярной компьютерной игры, а также раскроет некоторые секреты любимых героев.-[img]https://rating.kinopoisk.ru/609618.gif[/img] -Качество: BDRip-AVC [BDRemux / ANGRY_BIRDS_REMUX_HDCLUB]
Формат: MKV
Видео: AVC, 1152*622 (1.85:1), 3520 kb/s, 23.976 fps, 0.205 bit/pixel
Аудио 1: AC-3, 48.0 KHz, 384 Kbps, 5.1 ch [Rus]
Аудио 2: AC-3, 48.0 KHz, 384 Kbps, 5.1 ch [Eng]

MediaInfo

GeneralUnique ID : 227063557827198872486776541305034941685 (0xAAD2D9BC53042F5DA2E7752136DEA4F5)Complete name : C:\ppol\Angry Birds в кино (The Angry Birds Movie) 2016.mkvFormat : MatroskaFormat version : Version 4 / Version 2File size : 2.91 GiBDuration : 1 h 37 minOverall bit rate : 4 291 kb/sEncoded date : UTC 2016-08-04 05:40:04Writing application : mkvmerge v9.2.0 ('Photograph') 32bitWriting library : libebml v1.3.3 + libmatroska v1.4.4Cover : YesAttachments : cover.jpg
VideoID : 1Format : AVCFormat/Info : Advanced Video CodecFormat profile : High@L4.1Format settings, CABAC : YesFormat settings, ReFrames : 8 framesCodec ID : V_MPEG4/ISO/AVCDuration : 1 h 37 minBit rate : 3 520 kb/sWidth : 1 152 pixelsHeight : 622 pixelsDisplay aspect ratio : 1.85:1Frame rate mode : ConstantFrame rate : 23.976 (24000/1001) FPSColor space : YUVChroma subsampling : 4:2:0Bit depth : 8 bitsScan type : ProgressiveBits/(Pixel*Frame) : 0.205Stream size : 2.39 GiB (82%)Writing library : x264 core 148 r2638 7599210Encoding settings : cabac=1 / ref=8 / deblock=1:-1:-1 / analyse=0x3:0x113 / me=umh / subme=9 / psy=1 / psy_rd=1.00:0.15 / mixed_ref=1 / me_range=24 / chroma_me=1 / trellis=1 / 8x8dct=1 / cqm=0 / deadzone=21,11 / fast_pskip=1 / chroma_qp_offset=-3 / threads=6 / lookahead_threads=1 / sliced_threads=0 / nr=0 / decimate=1 / interlaced=0 / bluray_compat=0 / constrained_intra=0 / bframes=8 / b_pyramid=2 / b_adapt=2 / b_bias=0 / direct=3 / weightb=1 / open_gop=0 / weightp=2 / keyint=240 / keyint_min=23 / scenecut=40 / intra_refresh=0 / rc_lookahead=50 / rc=2pass / mbtree=1 / bitrate=3520 / ratetol=1.0 / qcomp=0.60 / qpmin=0 / qpmax=69 / qpstep=4 / cplxblur=20.0 / qblur=0.5 / vbv_maxrate=62500 / vbv_bufsize=78125 / nal_hrd=none / filler=0 / ip_ratio=1.40 / aq=1:1.00Default : YesForced : No
Audio #1ID : 2Format : AC-3Format/Info : Audio Coding 3Mode extension : CM (complete main)Format settings, Endianness : BigCodec ID : A_AC3Duration : 1 h 37 minBit rate mode : ConstantBit rate : 384 kb/sChannel(s) : 6 channelsChannel positions : Front: L C R, Side: L R, LFESampling rate : 48.0 kHzFrame rate : 31.250 FPS (1536 spf)Compression mode : LossyStream size : 267 MiB (9%)Title : Dub-iTunesLanguage : RussianDefault : YesForced : No
Audio #2ID : 3Format : AC-3Format/Info : Audio Coding 3Mode extension : CM (complete main)Format settings, Endianness : BigCodec ID : A_AC3Duration : 1 h 37 minBit rate mode : ConstantBit rate : 384 kb/sChannel(s) : 6 channelsChannel positions : Front: L C R, Side: L R, LFESampling rate : 48.0 kHzFrame rate : 31.250 FPS (1536 spf)Compression mode : LossyStream size : 267 MiB (9%)Title : OriginalLanguage : EnglishDefault : NoForced : No
Text #1ID : 4Format : UTF-8Codec ID : S_TEXT/UTF8Codec ID/Info : UTF-8 Plain TextDuration : 1 h 25 minBit rate : 2 b/sCount of elements : 54Stream size : 1.71 KiB (0%)Title : ForcedLanguage : RussianDefault : YesForced : No
Text #2ID : 5Format : UTF-8Codec ID : S_TEXT/UTF8Codec ID/Info : UTF-8 Plain TextDuration : 1 h 29 minBit rate : 99 b/sCount of elements : 1579Stream size : 65.1 KiB (0%)Title : FullLanguage : RussianDefault : NoForced : No
Text #3ID : 6Format : UTF-8Codec ID : S_TEXT/UTF8Codec ID/Info : UTF-8 Plain TextDuration : 1 h 32 minBit rate : 72 b/sCount of elements : 1820Stream size : 49.1 KiB (0%)Title : FullLanguage : EnglishDefault : NoForced : No
Text #4ID : 7Format : UTF-8Codec ID : S_TEXT/UTF8Codec ID/Info : UTF-8 Plain TextDuration : 1 h 32 minBit rate : 90 b/sCount of elements : 2275Stream size : 61.6 KiB (0%)Title : SDHLanguage : EnglishDefault : NoForced : No
Menu00:00:00.000 : :Chapter 0100:07:05.091 : :Chapter 0200:13:38.107 : :Chapter 0300:20:22.637 : :Chapter 0400:25:38.619 : :Chapter 0500:32:57.392 : :Chapter 0600:38:34.810 : :Chapter 0700:41:36.327 : :Chapter 0800:47:12.953 : :Chapter 0900:52:04.286 : :Chapter 1000:56:07.697 : :Chapter 1100:59:08.710 : :Chapter 1201:03:43.318 : :Chapter 1301:11:45.801 : :Chapter 1401:18:55.521 : :Chapter 1501:23:54.820 : :Chapter 16

x264

x264 [info]: frame I:1519 Avg QP:14.81 size:170462
x264 [info]: frame P:42623 Avg QP:18.61 size: 33241
x264 [info]: frame B:95730 Avg QP:20.66 size: 9307
x264 [info]: consecutive B-frames: 7.0% 7.6% 9.7% 58.2% 6.1% 8.1% 0.9% 2.1% 0.3%
x264 [info]: mb I I16..4: 4.9% 62.6% 32.5%
x264 [info]: mb P I16..4: 2.5% 13.5% 3.8% P16..4: 30.3% 18.3% 13.6% 0.0% 0.0% skip:18.0%
x264 [info]: mb B I16..4: 0.3% 1.7% 0.7% B16..8: 30.6% 8.0% 3.1% direct: 3.3% skip:52.3% L0:40.0% L1:45.2% BI:14.8%
x264 [info]: 8x8 transform intra:67.0% inter:67.6%
x264 [info]: direct mvs spatial:92.3% temporal:7.7%
x264 [info]: coded y,uvDC,uvAC intra: 81.7% 87.9% 66.4% inter: 21.3% 22.3% 7.3%
x264 [info]: i16 v,h,dc,p: 14% 19% 7% 61%
x264 [info]: i8 v,h,dc,ddl,ddr,vr,hd,vl,hu: 8% 11% 4% 9% 14% 13% 15% 11% 15%
x264 [info]: i4 v,h,dc,ddl,ddr,vr,hd,vl,hu: 7% 10% 3% 9% 16% 14% 16% 11% 15%
x264 [info]: i8c dc,h,v,p: 37% 26% 16% 21%
x264 [info]: Weighted P-Frames: Y:2.4% UV:1.4%
x264 [info]: ref P L0: 57.9% 13.3% 11.8% 5.3% 3.7% 3.1% 2.5% 2.0% 0.3% 0.0%
x264 [info]: ref B L0: 81.7% 8.6% 4.4% 2.1% 1.7% 1.0% 0.6%
x264 [info]: ref B L1: 94.3% 5.7%
x264 [info]: kb/s:3519.80

Скриншоты

-

_________________
Показать сообщения:    

Текущее время: Сегодня 10:29

Часовой пояс: GMT



Вы не можете начинать темы
Вы не можете отвечать на сообщения
Вы не можете редактировать свои сообщения
Вы не можете удалять свои сообщения
Вы не можете голосовать в опросах
Вы не можете прикреплять файлы к сообщениям
Вы не можете скачивать файлы