Angry Birds в кино / The Angry Birds Movie (Клэй Кэйтис / Clay Kaytis, Фергал Рейли / Fergal Reilly) [2016, США, Финляндия, мультфильм, комедия, семейный, BDRip 720p] Dub + Sub Rus + Original Eng :: Ивановский Торрент трекер
Важное объявление!
У Нас Все раздачи мультитрекерные, при нуле пиров в релизах, можете смело вставать на закачку!
Статистика раздачи
Размер:     |    Зарегистрирован:     |    Скачан:     |   
Нет
 
     
 
 
Автор Сообщение

HUNTER

Стаж:
4 года 11 месяцев
Сообщений:
66054

Репутация: 101

[+] [-]
Вне форума [Профиль] [ЛС]

Angry Birds в кино / The Angry Birds Movie
Страна: США, Финляндия
Жанр: мультфильм, комедия, семейный
Год выпуска: 2016
Продолжительность: 01:37:13
Перевод: Профессиональный (дублированный)
Cубтитры: Russian (Forced, iTunes), Russian (iTunes), Ukrainian (iTunes), English (iTunes), English, English (SDH)
Оригинальная аудиодорожка: английский-Режиссер: Клэй Кэйтис / Clay Kaytis, Фергал Рейли / Fergal Reilly-В ролях: Джейсон Судейкис, Джош Гад, Дэнни МакБрайд, Майя Рудольф, Билл Хейдер, Питер Динклэйдж, Шон Пенн, Кигэн-Майкл Ки, Кейт МакКиннон, Тони Хейл-Описание: Фильм расскажет о том, как началось знаменитое противостояние птичек и свинок, персонажей популярной компьютерной игры, а также раскроет некоторые секреты любимых героев.-Релиз:
-Качество видео: BDRip | Рип от OmertaHD!
Формат видео: MKV
Видео: 1280x692 at 23.976 fps, x264@L4.1, ~6537 kbps avg
Аудио 1: Russian: 48 kHz, AC3, 3/2 (L,C,R,l,r) + LFE ch, ~640.00 kbps avg |Дубляж, Blu-ray NORDiC|
Аудио 2: Ukrainian: 48 kHz, AC3, 3/2 (L,C,R,l,r) + LFE ch, ~640.00 kbps avg |Дубляж, Blu-ray NORDiC|
Аудио 3: English: 48 kHz/16-bit, DTS, 3/2 (L,C,R,l,r) + LFE ch, ~1536.00 kbps avg-
  • Скачать сэмпл-
Код:
Сохранены оригинальные главы как на Blu-ray.
Исходный WEB-DL куплен в рамках сервиса "Копилка".
FM,BB are used, zones used for dark/night scenes.

MediaInfo

Код:
Format                      : Matroska
Format version              : Version 2
File size                   : 6.43 GiB
Duration                    : 1 h 37 min
Overall bit rate            : 9 473 kb/s
Movie name                  : Angry Birds (2016) - Release for HDCLUB
Encoded date                : UTC 2016-09-06 10:43:49
Writing application         : mkvmerge v3.4.0 ('Rapunzel') built on May 15 2010 09:38:20
Writing library             : libebml v0.8.0 + libmatroska v0.9.0
Video
ID                          : 1
Format                      : AVC
Format/Info                 : Advanced Video Codec
Format profile              : High@L4.1
Format settings, CABAC      : Yes
Format settings, ReFrames   : 9 frames
Codec ID                    : V_MPEG4/ISO/AVC
Duration                    : 1 h 37 min
Bit rate                    : 6 496 kb/s
Width                       : 1 280 pixels
Height                      : 692 pixels
Display aspect ratio        : 1.85:1
Frame rate mode             : Constant
Frame rate                  : 23.976 (24000/1001) FPS
Color space                 : YUV
Chroma subsampling          : 4:2:0
Bit depth                   : 8 bits
Scan type                   : Progressive
Bits/(Pixel*Frame)          : 0.306
Stream size                 : 4.41 GiB (69%)
Title                       : Angry Birds (2016) - Release for HDCLUB
Writing library             : x264 core 148 r2692kMod 64f4e24
Encoding settings           : cabac=1 / ref=9 / deblock=1:-3:-3 / analyse=0x3:0x133 / me=umh / subme=10 / psy=1 / fade_compensate=0.00 / psy_rd=0.88:0.00 / mixed_ref=1 / me_range=32 / chroma_me=1 / trellis=2 / 8x8dct=1 / cqm=0 / deadzone=21,11 / fast_pskip=1 / chroma_qp_offset=-2 / threads=6 / lookahead_threads=1 / sliced_threads=0 / nr=0 / decimate=1 / interlaced=0 / bluray_compat=0 / constrained_intra=0 / fgo=0 / bframes=8 / b_pyramid=2 / b_adapt=2 / b_bias=0 / direct=3 / weightb=1 / open_gop=0 / weightp=2 / keyint=250 / keyint_min=23 / scenecut=40 / intra_refresh=0 / rc=crf / mbtree=0 / crf=15.2000 / qcomp=0.59 / qpmin=0 / qpmax=69 / qpstep=4 / ip_ratio=1.28 / pb_ratio=1.20 / aq=3:0.77 / zones=41776,53715,crf=14.2/61171,62140,crf=14.2/80469,85038,crf=14.2/91630,92374,crf=14.2
Language                    : English
Default                     : Yes
Forced                      : No
Audio #1
ID                          : 2
Format                      : AC-3
Format/Info                 : Audio Coding 3
Mode extension              : CM (complete main)
Format settings, Endianness : Big
Codec ID                    : A_AC3
Duration                    : 1 h 37 min
Bit rate mode               : Constant
Bit rate                    : 640 kb/s
Channel(s)                  : 6 channels
Channel positions           : Front: L C R, Side: L R, LFE
Sampling rate               : 48.0 kHz
Frame rate                  : 31.250 FPS (1536 spf)
Compression mode            : Lossy
Stream size                 : 445 MiB (7%)
Title                       : AC3 5.1 @ 640 kbps - DUB, Blu-ray NORDiC
Language                    : Russian
Default                     : Yes
Forced                      : No
Audio #2
ID                          : 3
Format                      : AC-3
Format/Info                 : Audio Coding 3
Mode extension              : CM (complete main)
Format settings, Endianness : Big
Codec ID                    : A_AC3
Duration                    : 1 h 37 min
Bit rate mode               : Constant
Bit rate                    : 640 kb/s
Channel(s)                  : 6 channels
Channel positions           : Front: L C R, Side: L R, LFE
Sampling rate               : 48.0 kHz
Frame rate                  : 31.250 FPS (1536 spf)
Compression mode            : Lossy
Stream size                 : 445 MiB (7%)
Title                       : AC3 5.1 @ 640 kbps - DUB, Blu-ray NORDiC
Language                    : Ukrainian
Default                     : No
Forced                      : No
Audio #3
ID                          : 4
Format                      : DTS
Format/Info                 : Digital Theater Systems
Mode                        : 16
Format settings, Endianness : Big
Codec ID                    : A_DTS
Duration                    : 1 h 37 min
Bit rate mode               : Constant
Bit rate                    : 1 509 kb/s
Channel(s)                  : 6 channels
Channel positions           : Front: L C R, Side: L R, LFE
Sampling rate               : 48.0 kHz
Frame rate                  : 93.750 FPS (512 spf)
Bit depth                   : 16 bits
Compression mode            : Lossy
Stream size                 : 1.02 GiB (16%)
Title                       : DTS 5.1 @ 1536 kbps
Language                    : English
Default                     : No
Forced                      : No
Text #1
ID                          : 5
Format                      : UTF-8
Codec ID                    : S_TEXT/UTF8
Codec ID/Info               : UTF-8 Plain Text
Title                       : Forced, iTunes
Language                    : Russian
Default                     : Yes
Forced                      : No
Text #2
ID                          : 6
Format                      : UTF-8
Codec ID                    : S_TEXT/UTF8
Codec ID/Info               : UTF-8 Plain Text
Title                       : iTunes
Language                    : Russian
Default                     : No
Forced                      : No
Text #3
ID                          : 7
Format                      : UTF-8
Codec ID                    : S_TEXT/UTF8
Codec ID/Info               : UTF-8 Plain Text
Title                       : iTunes
Language                    : Ukrainian
Default                     : No
Forced                      : No
Text #4
ID                          : 8
Format                      : UTF-8
Codec ID                    : S_TEXT/UTF8
Codec ID/Info               : UTF-8 Plain Text
Title                       : iTunes
Language                    : English
Default                     : No
Forced                      : No
Text #5
ID                          : 9
Format                      : UTF-8
Codec ID                    : S_TEXT/UTF8
Codec ID/Info               : UTF-8 Plain Text
Language                    : English
Default                     : No
Forced                      : No
Text #6
ID                          : 10
Format                      : UTF-8
Codec ID                    : S_TEXT/UTF8
Codec ID/Info               : UTF-8 Plain Text
Title                       : SDH
Language                    : English
Default                     : No
Forced                      : No
Menu
00:00:00.000                : en:Chapter 1
00:07:05.091                : en:Chapter 2
00:13:38.109                : en:Chapter 3
00:20:22.638                : en:Chapter 4
00:25:38.620                : en:Chapter 5
00:32:57.392                : en:Chapter 6
00:38:34.812                : en:Chapter 7
00:41:36.327                : en:Chapter 8
00:47:12.955                : en:Chapter 9
00:52:04.288                : en:Chapter 10
00:56:07.698                : en:Chapter 11
00:59:08.712                : en:Chapter 12
01:03:43.319                : en:Chapter 13
01:11:45.801                : en:Chapter 14
01:18:55.522                : en:Chapter 15
01:23:54.821                : en:Chapter 16

Скриншоты


_________________
Показать сообщения:    

Текущее время: Сегодня 09:05

Часовой пояс: GMT



Вы не можете начинать темы
Вы не можете отвечать на сообщения
Вы не можете редактировать свои сообщения
Вы не можете удалять свои сообщения
Вы не можете голосовать в опросах
Вы не можете прикреплять файлы к сообщениям
Вы не можете скачивать файлы