Ивановский Торрент трекер
Яндекс.Погода
 

[Цитировать]
HUNTER

Angry Birds в кино / The Angry Birds Movie
Страна: США, Финляндия
Жанр: мультфильм, комедия, семейный
Продолжительность: 01:37:14
Год выпуска: 2016
Перевод: Профессиональный (дублированный)
Русские субтитры: есть
Режиссёр: Клэй Кэйтис / Clay Kaytis, Фергал Рейли / Fergal Reilly
Роли озвучивали: Питер Динклэйдж, Джейсон Судейкис, Кейт МакКиннон, Кигэн-Майкл Ки, Титус Берджесс, Шон Пенн, Билл Хейдер, Майя Рудольф, Айк Баринхолц, Дэнни МакБрайд
Описание: Фильм расскажет о том, как началось знаменитое противостояние птичек и свинок, персонажей популярной компьютерной игры, а также раскроет некоторые секреты любимых героев.
Семпл: http://multi-up.com/1112160
Качество: BDRip 1080p
Формат: MKV
Видео: AVC 13,5 Мбит/сек Kbps 1280 x 720 (1,85:1) 23.976 fps
Аудио: Dolby AC3 48000Hz 6ch 384kbps [iTunes [rus]
Аудио 2: DTS 48000Hz 6ch 1536kbps [English [eng]
Субтитры: Русские (полные), English (Full, SDH)
Навигация по главам: 16 глав

Подробные технические данные

Формат : MatroskaВерсия формата : Version 4 / Version 2Размер файла : 10,4 ГбайтПродолжительность : 1 ч. 37 м.Общий поток : 15,4 Мбит/секНазвание фильма : Angry.Birds.2016.1080p.BluRay.DTS.x264-HDMaNiAcSДата кодирования : UTC 2016-07-31 10:47:55Программа кодирования : mkvmerge v9.2.0 ('Photograph') 64bitБиблиотека кодирования : libebml v1.3.3 + libmatroska v1.4.4
ВидеоИдентификатор : 1Формат : AVCФормат/Информация : Advanced Video CodecПрофиль формата : High@L4.1Параметр CABAC формата : ДаПараметр ReFrames формата : 4 кадраИдентификатор кодека : V_MPEG4/ISO/AVCПродолжительность : 1 ч. 37 м.Битрейт : 13,5 Мбит/секШирина : 1920 пикселейВысота : 1040 пикселейСоотношение сторон : 1,85:1Режим частоты кадров : ПостоянныйЧастота кадров : 23,976 (24000/1001) кадра/секЦветовое пространство : YUVСубдискретизация насыщенности : 4:2:0Битовая глубина : 8 битТип развёртки : ПрогрессивнаяБит/(Пиксели*Кадры) : 0.282Размер потока : 9,16 Гбайт (88%)Библиотека кодирования : x264 core 146 r2538 121396cНастройки программы : cabac=1 / ref=4 / deblock=1:-3:-3 / analyse=0x3:0x133 / me=umh / subme=11 / psy=1 / psy_rd=0.80:0.00 / mixed_ref=1 / me_range=32 / chroma_me=1 / trellis=2 / 8x8dct=1 / cqm=0 / deadzone=21,11 / fast_pskip=0 / chroma_qp_offset=-2 / threads=60 / lookahead_threads=8 / sliced_threads=0 / nr=0 / decimate=0 / interlaced=0 / bluray_compat=0 / constrained_intra=0 / bframes=8 / b_pyramid=2 / b_adapt=2 / b_bias=0 / direct=3 / weightb=1 / open_gop=0 / weightp=2 / keyint=240 / keyint_min=23 / scenecut=40 / intra_refresh=0 / rc_lookahead=150 / rc=crf / mbtree=0 / crf=15.2 / qcomp=0.60 / qpmin=0 / qpmax=69 / qpstep=4 / vbv_maxrate=62500 / vbv_bufsize=78125 / crf_max=0.0 / nal_hrd=none / filler=0 / ip_ratio=1.40 / pb_ratio=1.30 / aq=1:0.80Язык : EnglishDefault : ДаForced : Нет
Аудио #1Идентификатор : 2Формат : AC-3Формат/Информация : Audio Coding 3Расширение режима : CM (complete main)Параметр Endianness формата : BigИдентификатор кодека : A_AC3Продолжительность : 1 ч. 37 м.Вид битрейта : ПостоянныйБитрейт : 384 Кбит/секКаналы : 6 каналовРасположение каналов : Front: L C R, Side: L R, LFEЧастота : 48,0 КГцЧастота кадров : 31,250 кадров/сек (1536 spf)Метод сжатия : С потерямиЗадержка видео : 960 мс.Размер потока : 267 Мбайт (2%)Заголовок : iTunesЯзык : RussianDefault : ДаForced : Нет
Аудио #2Идентификатор : 3Формат : DTSФормат/Информация : Digital Theater SystemsРежим : 16Параметр Endianness формата : BigИдентификатор кодека : A_DTSПродолжительность : 1 ч. 37 м.Вид битрейта : ПостоянныйБитрейт : 1509 Кбит/секКаналы : 6 каналовРасположение каналов : Front: L C R, Side: L R, LFEЧастота : 48,0 КГцЧастота кадров : 93,750 кадра/сек (512 spf)Битовая глубина : 24 битМетод сжатия : С потерямиРазмер потока : 1,02 Гбайт (10%)Язык : EnglishDefault : НетForced : Нет
Текст #1Идентификатор : 4Формат : UTF-8Идентификатор кодека : S_TEXT/UTF8Идентификатор кодека/Информация : UTF-8 Plain TextПродолжительность : 1 ч. 32 м.Битрейт : 72 бит/секCount of elements : 1820Размер потока : 49,1 Кбайт (0%)Заголовок : fullЯзык : EnglishDefault : НетForced : Нет
Текст #2Идентификатор : 5Формат : UTF-8Идентификатор кодека : S_TEXT/UTF8Идентификатор кодека/Информация : UTF-8 Plain TextПродолжительность : 1 ч. 32 м.Битрейт : 90 бит/секCount of elements : 2275Размер потока : 61,6 Кбайт (0%)Заголовок : SDHЯзык : EnglishDefault : НетForced : Нет
Текст #3Идентификатор : 6Формат : UTF-8Идентификатор кодека : S_TEXT/UTF8Идентификатор кодека/Информация : UTF-8 Plain TextПродолжительность : 1 ч. 29 м.Битрейт : 99 бит/секCount of elements : 1579Размер потока : 65,1 Кбайт (0%)Заголовок : fullЯзык : RussianDefault : ДаForced : Нет
Меню00:00:00.000 : en:00:00:00.00000:07:05.091 : en:00:07:05.09100:13:38.109 : en:00:13:38.10900:20:22.638 : en:00:20:22.63800:25:38.620 : en:00:25:38.62000:32:57.392 : en:00:32:57.39200:38:34.812 : en:00:38:34.81200:41:36.327 : en:00:41:36.32700:47:12.955 : en:00:47:12.95500:52:04.288 : en:00:52:04.28800:56:07.698 : en:00:56:07.69800:59:08.712 : en:00:59:08.71201:03:43.319 : en:01:03:43.31901:11:45.801 : en:01:11:45.80101:18:55.522 : en:01:18:55.52201:23:54.821 : en:01:23:54.821

Скриншоты



Показать сообщения:    

Текущее время: 17-Дек 06:29

Часовой пояс: UTC ± 0


Вы не можете начинать темы
Вы не можете отвечать на сообщения
Вы не можете редактировать свои сообщения
Вы не можете удалять свои сообщения
Вы не можете голосовать в опросах
Вы не можете прикреплять файлы к сообщениям
Вы не можете скачивать файлы

!ВНИМАНИЕ!
Сайт не предоставляет электронные версии произведений, а занимается лишь коллекционированием и каталогизацией ссылок, присылаемых и публикуемых на форуме нашими читателями. Если вы являетесь правообладателем какого-либо представленного материала и не желаете, чтобы ссылка на него находилась в нашем каталоге, свяжитесь с нами, и мы незамедлительно удалим ее. Файлы для обмена на трекере предоставлены пользователями сайта, и администрация не несет ответственности за их содержание. Просьба не заливать файлы, защищенные авторскими правами, а также файлы нелегального содержания!