Ивановский Торрент трекер
Яндекс.Погода
 

[Цитировать]
HUNTER


Andreea Balan
Like a Bunny
-Год производства: 2011
Страна: Румыния
Жанр: Pop
Продолжительность: 00:02:56-Описание:
Новый видеоклип от румынской поп певицы Andreea Balan - Like A Bunny 2011 !!!...Клип снимали на острове Крит в течение одной недели. Красивый клип а еще красивее девушки в клипе ....!!!-Качество видео: HDCam
Формат видео: mpg
Видео кодек: MPEG2
Аудио кодек: MP2
Видео: MPEG2, 1920x1080, 30 mbps, 25 fps
Аудио: MP2, 384 kbps, 48 kHz, 2 ch-

Скриншоты

-

Скринлист

-

Mediainfo

Код: copyText_writeLink('this.parentNode.parentNode.nextSibling.nextSibling');
Format : MPEG-PS
File size : 657 MiB
Duration : 2mn 55s
Overall bit rate : 31.3 Mbps
Video
ID : 224 (0xE0)
Format : MPEG Video
Format version : Version 2
Format profile : High@High
Format settings, BVOP : Yes
Format settings, Matrix : Default
Format settings, GOP : M=3, N=12
Duration : 2mn 55s
Bit rate : 30.0 Mbps
Width : 1 920 pixels
Height : 1 080 pixels
Display aspect ratio : 16:9
Frame rate : 25.000 fps
Standard : PAL
Color space : YUV
Chroma subsampling : 4:2:0
Bit depth : 8 bits
Scan type : Progressive
Compression mode : Lossy
Bits/(Pixel*Frame) : 0.579
Stream size : 635 MiB (97%)
Audio
ID : 192 (0xC0)
Format : MPEG Audio
Format version : Version 1
Format profile : Layer 2
Duration : 2mn 55s
Bit rate mode : Constant
Bit rate : 384 Kbps
Channel(s) : 2 channels
Sampling rate : 48.0 KHz
Compression mode : Lossy
Delay relative to video : 24ms
Stream size : 8.05 MiB (1%)
Показать сообщения:    

Текущее время: 26-Сен 04:32

Часовой пояс: UTC - 1


Вы не можете начинать темы
Вы не можете отвечать на сообщения
Вы не можете редактировать свои сообщения
Вы не можете удалять свои сообщения
Вы не можете голосовать в опросах
Вы не можете прикреплять файлы к сообщениям
Вы не можете скачивать файлы

!ВНИМАНИЕ!
Сайт не предоставляет электронные версии произведений, а занимается лишь коллекционированием и каталогизацией ссылок, присылаемых и публикуемых на форуме нашими читателями. Если вы являетесь правообладателем какого-либо представленного материала и не желаете, чтобы ссылка на него находилась в нашем каталоге, свяжитесь с нами, и мы незамедлительно удалим ее. Файлы для обмена на трекере предоставлены пользователями сайта, и администрация не несет ответственности за их содержание. Просьба не заливать файлы, защищенные авторскими правами, а также файлы нелегального содержания!