Ивановский Торрент трекер
Яндекс.Погода
 

[Цитировать]
HUNTER

[Allegorithmic.com] Substance Painter Texturing for Beginners [2015, RUS]
Год выпуска: 2015
Сайт производителя: Allegorithmic.com
Автор: Allegorithmic
Продолжительность: 2:45:59
Тип раздаваемого материала: Видеоурок
Язык: Русский (перевод Polygon Stories)
Описание:
Официальный базовый учебный курс от создателей Substance Painter.
Курс направлен на ознакомление пользователей с основами программы Substance Painter (версия 1.4 и выше) и демонстрацию всех базовых инструментов, необходимых для начала успешной работы в этой программе.

Описание на Английском языке

Substance Painter Texturing for Beginners
A complete, self-paced course for learning how to texture using Substance Painter. The course is split into 3 categories – Fundamentals, Model Preparation, Scifi Crate Project.
Fundamentals teaches the core aspects of the software and is a great starting point for new users. If you would like to jump right in using a project-based approach, with a faster pace, then the Scifi crate project is what you need. The model preparation chapter covers important aspects of texturing such as texel density, UV mapping, material and baking setup.
Software: Substance Painter
Version: 1.4 and higher
Prerequisites: Understanding of a 3D application.
Файлы примеров: присутствуют
Формат видео: MP4
Видео: AVC (H264), 1920х1080, 30 fps
Аудио: AAC, 44100 Hz, mono, 128 Кбит/с

Mediainfo

GeneralComplete name : 17. Экспорт текстур.mp4Format : MPEG-4Format profile : Base MediaCodec ID : isomFile size : 25.4 MiBDuration : 7mn 7sOverall bit rate : 499 KbpsWriting application : Lavf55.19.104
VideoID : 1Format : AVCFormat/Info : Advanced Video CodecFormat profile : High@L4.0Format settings, CABAC : YesFormat settings, ReFrames : 3 framesCodec ID : avc1Codec ID/Info : Advanced Video CodingDuration : 7mn 7sBit rate : 363 KbpsWidth : 1 920 pixelsHeight : 1 080 pixelsDisplay aspect ratio : 16:9Frame rate mode : ConstantFrame rate : 30.000 fpsColor space : YUVChroma subsampling : 4:2:0Bit depth : 8 bitsScan type : ProgressiveBits/(Pixel*Frame) : 0.006Stream size : 18.5 MiB (73%)Language : English
AudioID : 2Format : AACFormat/Info : Advanced Audio CodecFormat profile : LCCodec ID : 40Duration : 7mn 7sDuration_LastFrame : 40msBit rate mode : ConstantBit rate : 128 KbpsChannel(s) : 2 channelsChannel(s)_Original : 1 channelChannel positions : Front: CSampling rate : 44.1 KHzCompression mode : LossyStream size : 6.52 MiB (26%)Language : Russian

Скриншоты

Время раздачи: до первых 5 скачавших
Показать сообщения:    

Текущее время: 18-Окт 06:27

Часовой пояс: UTC - 1


Вы не можете начинать темы
Вы не можете отвечать на сообщения
Вы не можете редактировать свои сообщения
Вы не можете удалять свои сообщения
Вы не можете голосовать в опросах
Вы не можете прикреплять файлы к сообщениям
Вы не можете скачивать файлы

!ВНИМАНИЕ!
Сайт не предоставляет электронные версии произведений, а занимается лишь коллекционированием и каталогизацией ссылок, присылаемых и публикуемых на форуме нашими читателями. Если вы являетесь правообладателем какого-либо представленного материала и не желаете, чтобы ссылка на него находилась в нашем каталоге, свяжитесь с нами, и мы незамедлительно удалим ее. Файлы для обмена на трекере предоставлены пользователями сайта, и администрация не несет ответственности за их содержание. Просьба не заливать файлы, защищенные авторскими правами, а также файлы нелегального содержания!