Важное объявление!
У Нас Все раздачи мультитрекерные, при нуле пиров в релизах, можете смело вставать на закачку!
 
Автор Сообщение

HUNTER

Стаж:
4 года 11 месяцев
Сообщений:
66039

Репутация: 101

[+] [-]
Вне форума [Профиль] [ЛС]

[Allegorithmic.com] Substance Designer Intermediate-Advanced Tutorials [2015, RUS]
Год выпуска: 2015
Сайт производителя: Allegorithmic.com
Автор: Allegorithmic
Продолжительность: 3:43:51
Тип раздаваемого материала: Видеоурок
Язык: Русский (перевод Гоха+)
Описание:
Данная подборка уроков нацелена на расширение знаний по программе Substance Designer (версия 5.0 и выше).
Общий курс разделён на 2 темы:
- Создание процедурного материала горной породы
- Создание текстурного атласа.

Описание на Английском языке

Substance Designer: Procedural rocky ground material series
In this 5-part series, we take a look at creating a procedural rocky ground material.
Software: Substance Designer
Version: 5.0/5.1
Prerequisites: Understanding of Substance Designer nodes and workflows.
-
Substance Designer: Creating a texture atlas
In this 3-part series, we take a look at creating a texture atlas in Substance Designer. This series covers the following:
1. Measuring geometry using a specific unit to pixel ratio
2. Using the Atlas Maker tool
3. UV layout to match the texture atlas
Software: Substance Designer
Version: 5.0/5.1.1 or 4.6
Prerequisites: Understanding of Substance Designer nodes and workflows.
Файлы примеров: присутствуют
Формат видео: MP4
Видео: AVC (H264), 1920х1080, 30 fps
Аудио: AAC, 44100 Hz, mono, 128 Кбит/с

Mediainfo

GeneralComplete name : 01. Creating a procedural rocky ground material - 1.mp4Format : MPEG-4Format profile : Base MediaCodec ID : isomFile size : 114 MiBDuration : 27mn 13sOverall bit rate : 587 KbpsWriting application : Lavf55.19.104
VideoID : 1Format : AVCFormat/Info : Advanced Video CodecFormat profile : High@L4.0Format settings, CABAC : YesFormat settings, ReFrames : 3 framesCodec ID : avc1Codec ID/Info : Advanced Video CodingDuration : 27mn 13sBit rate : 451 KbpsWidth : 1 920 pixelsHeight : 1 080 pixelsDisplay aspect ratio : 16:9Frame rate mode : ConstantFrame rate : 30.000 fpsColor space : YUVChroma subsampling : 4:2:0Bit depth : 8 bitsScan type : ProgressiveBits/(Pixel*Frame) : 0.007Stream size : 87.8 MiB (77%)Language : English
AudioID : 2Format : AACFormat/Info : Advanced Audio CodecFormat profile : LCCodec ID : 40Duration : 27mn 13sDuration_LastFrame : 44msBit rate mode : ConstantBit rate : 128 KbpsChannel(s) : 2 channelsChannel(s)_Original : 1 channelChannel positions : Front: CSampling rate : 44.1 KHzCompression mode : LossyStream size : 24.9 MiB (22%)Language : Russian

Скриншоты


Время раздачи: до первых 5 скачавших

_________________
Показать сообщения:    

Текущее время: Сегодня 04:56

Часовой пояс: GMT



Вы не можете начинать темы
Вы не можете отвечать на сообщения
Вы не можете редактировать свои сообщения
Вы не можете удалять свои сообщения
Вы не можете голосовать в опросах
Вы не можете прикреплять файлы к сообщениям
Вы не можете скачивать файлы