Ивановский Торрент трекер
Яндекс.Погода
DL-List and Torrent activity
None
 
     
 
 

[Quote]
HUNTER

Алекс и Эмма / Alex & Emma
Страна: США
Студия: Epsilon Motion Pictures, Escape Artists, Franchise Pictures, Reiner-Greisman
Жанр: мелодрама, комедия
Год выпуска: 2003
Продолжительность: 01:31:40
Перевод: Профессиональный (дублированный) Мосфильм
Субтитры: русские, английские
Оригинальная аудиодорожка: английский
Режиссер: Роб Райнер / Rob Reiner
В ролях: Кейт Хадсон
Люк Уилсон
Софи Марсо
Дэвид Пэймер
Чино XL
Лобо Себастьян
Роб Райнер
Пол Вилсон
Александр Вотье
Лейли Крамер
Описание: Единственная возможность избежать смерти — написать роман. К такому выводу приходит молодой писатель Алекс, который, благодаря разгульному образу жизни и любви к карточным играм, задолжал огромную сумму беспощадной кубинской мафии. Ровно за месяц он должен представить издателям свое произведение, пока что существующее только в виде одного предложения.
Чтобы ускорить процесс, он нанимает практичную стенографистку Эмму Динсмор. Эмма критикует все сюжетные линии романа. Вскоре чудо-стенографистка начинает всерьез влиять на Алекса и его роман и сама становится «генератором идей». Днями и ночами Алекс и Эмма работают над романом о любовном треугольнике между Адамом Шипли, Полиной Делакроикс и ещё одной женщиной, известной под несколькими именами: Ильва, Эльза, Элдора и Анна. Настоящая жизнь начинает сливаться с вымышленной, а вымышленная с настоящей…
Меню: Анимированное и статичное, озвученное (русский язык)
-Тип релиза: DVD5
Контейнер: DVD-Video
Видео: PAL 4:3 (720x576) VBR
Аудио: Russian (Dolby AC3, 5.1 ch, 384 kbps)
Аудио 2: English (Dolby AC3, 5.1 ch, 384 kbps)
Формат субтитров: prerendered (DVD/IDX+SUB)

Региональная защита

MediaInfo

General
Complete name : D:\ALEX_AND_EMMA\VIDEO_TS\VTS_02_1.VOB
Format : MPEG-PS
File size : 1 024 MiB
Duration : 23 min 33 s
Overall bit rate mode : Variable
Overall bit rate : 6 077 kb/s
Video
ID : 224 (0xE0)
Format : MPEG Video
Format version : Version 2
Format profile : Main@Main
Format settings : CustomMatrix / BVOP
Format settings, BVOP : Yes
Format settings, Matrix : Custom
Format settings, GOP : M=3, N=12
Format settings, picture st : Frame
Duration : 23 min 33 s
Bit rate mode : Variable
Bit rate : 5 188 kb/s
Maximum bit rate : 8 500 kb/s
Width : 720 pixels
Height : 576 pixels
Display aspect ratio : 4:3
Frame rate : 25.000 FPS
Standard : PAL
Color space : YUV
Chroma subsampling : 4:2:0
Bit depth : 8 bits
Scan type : Interlaced
Scan order : Top Field First
Compression mode : Lossy
Bits/(Pixel*Frame) : 0.500
Time code of first frame : 00:00:00:00
Time code source : Group of pictures header
GOP, Open/Closed : Open
GOP, Open/Closed of first f : Closed
Stream size : 874 MiB (85%)
Audio #1
ID : 189 (0xBD)-128 (0x80)
Format : AC-3
Format/Info : Audio Coding 3
Commercial name : Dolby Digital
Muxing mode : DVD-Video
Duration : 23 min 32 s
Bit rate mode : Constant
Bit rate : 384 kb/s
Channel(s) : 6 channels
Channel layout : L R C LFE Ls Rs
Sampling rate : 48.0 kHz
Frame rate : 31.250 FPS (1536 SPF)
Compression mode : Lossy
Stream size : 64.7 MiB (6%)
Service kind : Complete Main
Audio #2
ID : 189 (0xBD)-129 (0x81)
Format : AC-3
Format/Info : Audio Coding 3
Commercial name : Dolby Digital
Muxing mode : DVD-Video
Duration : 23 min 32 s
Bit rate mode : Constant
Bit rate : 384 kb/s
Channel(s) : 6 channels
Channel layout : L R C LFE Ls Rs
Sampling rate : 48.0 kHz
Frame rate : 31.250 FPS (1536 SPF)
Compression mode : Lossy
Stream size : 64.7 MiB (6%)
Service kind : Complete Main
Text #1
ID : 189 (0xBD)-32 (0x20)
Format : RLE
Format/Info : Run-length encoding
Muxing mode : DVD-Video
Duration : 23 min 24 s
Delay relative to video : 7 s 400 ms
Text #2
ID : 189 (0xBD)-33 (0x21)
Format : RLE
Format/Info : Run-length encoding
Muxing mode : DVD-Video
Menu

Скриншоты меню

Скриншоты



Display posts:    

Current time is: 22-Jan 03:15

All times are UTC ± 0


You cannot post new topics in this forum
You cannot reply to topics in this forum
You cannot edit your posts in this forum
You cannot delete your posts in this forum
You cannot vote in polls in this forum
You cannot attach files in this forum
You cannot download files in this forum

!ATTENTION!
The site does not give electronic versions of products, and is engaged only in a collecting and cataloguing of the references sent and published at a forum by our readers. If you are the legal owner of any submitted material and do not wish that the reference to it was in our catalogue, contact us and we shall immediately remove her. Files for an exchange on tracker are given by users of a site, and the administration does not bear the responsibility for their maintenance. The request to not fill in the files protected by copyrights, and also files of the illegal maintenance!