Важное объявление!
У Нас Все раздачи мультитрекерные, при нуле пиров в релизах, можете смело вставать на закачку!
Статистика раздачи
Размер:     |    Зарегистрирован:     |    Скачан:     |   
Нет
 
     
 
 
Автор Сообщение

HUNTER

Стаж:
5 лет
Сообщений:
67958

Репутация: 101

[+] [-]
Вне форума [Профиль] [ЛС]

Interactive / Sun Always Shines On TV
Жанр: Acid House, Happy Hardcore
Носитель: CDM
Страна-производитель диска (релиза): Holland
Год издания: 1996
Издатель (лейбл): Blow Up
Номер по каталогу: INT 828.141
Страна исполнителя (группы): Germany
Аудиокодек: FLAC (*.flac)
Тип рипа: tracks+.cue
Битрейт аудио: lossless
Продолжительность: 18:51
Источник (релизер): Рип с диска из личной коллекции
Наличие сканов в содержимом раздачи: нет
Треклист:
1. Sun Always Shines On TV (Radio Version)
2. Sun Always Shines On TV (Extended Club Mix)
3. Interactive
4. Come Over

Лог создания рипа

Exact Audio Copy V1.0 beta 3 from 29. August 2011
Отчёт EAC об извлечении, выполненном 5. июня 2015, 12:58
Interactive / Sun Always Shines On TV (CDM)
Дисковод: TSSTcorpCDDVDW SH-S203D Adapter: 2 ID: 0
Режим чтения : ДостоверностьИспользование точного потока : ДаОтключение кэша аудио : ДаИспользование указателей C2 : Нет
Коррекция смещения при чтении : 6Способность читать области Lead-in и Lead-out : НетЗаполнение пропущенных сэмплов тишиной : ДаУдаление блоков с тишиной в начале и конце : НетПри вычислениях CRC использовались нулевые сэмплы : ДаИнтерфейс : Встроенный Win32-интерфейс для Win NT/2000Обработка зазоров : Добавлено к предыдущему треку
Выходной формат : Пользовательский кодировщикВыбранный битрейт : 1024 kBit/sКачество : ВысокийДобавление ID3-тега : НетУтилита сжатия : C:\Program Files (x86)\Exact Audio Copy\FLAC\FLAC.EXEДополнительные параметры : -6 -V -T "ARTIST=%artist%" -T "TITLE=%title%" -T "ALBUM=%albumtitle%" -T "DATE=%year%" -T "TRACKNUMBER=%tracknr%" -T "GENRE=%genre%" -T "COMMENT=%comment%" -T "BAND=%albuminterpret%" -T "ALBUMARTIST=%albuminterpret%" -T "COMPOSER=%composer%" %haslyrics%--tag-from-file=LYRICS="%lyricsfile%"%haslyrics% -T "DISCNUMBER=%cdnumber%" -T "TOTALDISCS=%totalcds%" -T "TOTALTRACKS=%numtracks%" %hascover%--picture="%coverfile%"%hascover% %source% -o %dest%
TOC извлечённого CD
Трек | Старт | Длительность | Начальный сектор | Конечный сектор --------------------------------------------------------------------- 1 | 0:00.00 | 3:21.02 | 0 | 15076 2 | 3:21.02 | 5:42.08 | 15077 | 40734 3 | 9:03.10 | 5:04.50 | 40735 | 63584 4 | 14:07.60 | 4:41.37 | 63585 | 84696
Трек 1
Имя файла E:\МУЗЫКА\01. Interactive - Sun Always Shines On TV (Radio Version).wav
Длина предзазора 0:00:02.00
Пиковый уровень 99.9 % Скорость извлечения 1.7 X Качество трека 100.0 % CRC теста DFF8CA36 CRC копии DFF8CA36 Точное извлечение (достоверность 2) [A10E00A1] (AR v2) Копирование... OK
Трек 2
Имя файла E:\МУЗЫКА\02. Interactive - Sun Always Shines On TV (Extended Club Mix).wav
Длина предзазора 0:00:00.25
Пиковый уровень 99.9 % Скорость извлечения 2.1 X Качество трека 100.0 % CRC теста F8A0CDE0 CRC копии F8A0CDE0 Точное извлечение (достоверность 2) [7EA92AD9] (AR v2) Копирование... OK
Трек 3
Имя файла E:\МУЗЫКА\03. Interactive - Interactive.wav
Длина предзазора 0:00:00.60
Пиковый уровень 92.0 % Скорость извлечения 2.3 X Качество трека 100.0 % CRC теста 92D791D6 CRC копии 92D791D6 Точное извлечение (достоверность 2) [91826EAD] (AR v2) Копирование... OK
Трек 4
Имя файла E:\МУЗЫКА\04. Interactive - Come Over.wav
Длина предзазора 0:00:00.13
Пиковый уровень 80.3 % Скорость извлечения 2.5 X Качество трека 100.0 % CRC теста 6B7B5FD9 CRC копии 6B7B5FD9 Точное извлечение (достоверность 2) [8C141DC2] (AR v2) Копирование... OK
Все треки извлечены точно
Ошибок не произошло
Конец отчёта
==== Контрольная сумма отчёта 8C08C81E62E1EB9A3C9B0057337F33E7E6F374D7336E70414C1B892E1E6EA14A ====

Содержание индексной карты (.CUE)

REM GENRE "Happy Hardcore"REM DATE 1996REM DISCID 2A046904REM COMMENT "ExactAudioCopy v1.0b3"PERFORMER "Interactive"TITLE "Sun Always Shines On TV (CDM)"FILE "01. Interactive - Sun Always Shines On TV (Radio Version).wav" WAVE TRACK 01 AUDIO TITLE "Sun Always Shines On TV (Radio Version)" PERFORMER "Interactive" INDEX 01 00:00:00 TRACK 02 AUDIO TITLE "Sun Always Shines On TV (Extended Club Mix)" PERFORMER "Interactive" INDEX 00 03:20:52FILE "02. Interactive - Sun Always Shines On TV (Extended Club Mix).wav" WAVE INDEX 01 00:00:00 TRACK 03 AUDIO TITLE "Interactive" PERFORMER "Interactive" INDEX 00 05:41:23FILE "03. Interactive - Interactive.wav" WAVE INDEX 01 00:00:00 TRACK 04 AUDIO TITLE "Come Over" PERFORMER "Interactive" INDEX 00 05:04:37FILE "04. Interactive - Come Over.wav" WAVE INDEX 01 00:00:00
Доп. информация: http://www.discogs.com/Interactive-Sun-Always-Shine...TV/release/50885

_________________
Показать сообщения:    

Текущее время: Сегодня 22:52

Часовой пояс: GMT



Вы не можете начинать темы
Вы не можете отвечать на сообщения
Вы не можете редактировать свои сообщения
Вы не можете удалять свои сообщения
Вы не можете голосовать в опросах
Вы не можете прикреплять файлы к сообщениям
Вы не можете скачивать файлы