Ивановский Торрент трекер
Яндекс.Погода
 

[Цитировать]
HUNTER

Амазония
Amazonia

Год выпуска: 2013
Страна: Франция, Бразилия (DNC Entertainment, WWF, Le Pacte, Biloba Films, Gullane, ...)
Жанр: Приключения, Семейный
Продолжительность: 1:23:06
Перевод: Необязателен (субтитры имеются - 80 фраз)
Режиссер: Тьерри Рагоберт / Thierry Ragobert
Описание: Невероятно увлекательное путешествие по диким тропическим джунглям Амазонии вместе с цирковым капуцином. Выжив в авиакатастрофе, маленькая обезьянка попадает в чуждую ей "родную" среду и теперь должна сама заботиться о себе. Ведь новый мир дикой природы полон опасностей и ловушек. Что ее ждет и как она приспособится к жизни в дикой Амазонии?
Доп. инфо: Часть эпизодов реализована в 2Д или псевдо-3Д (см. скрины анимации внизу).-Премьера: 7 сентября 2013 (28 августа 2014)
. .
-Качество: BDRip (by Ash61)
Контейнер: MKV
Формат 3D: Half OverUnder / Вертикальная анаморфная стереопара
Порядок ракурсов: левый ракурс первый
Видео кодек: x264
Аудио кодек: AC3-Видео: AVC / 23,976 fps / 1920х1080p / 22.1 Mbps
Аудио:
#1 - Итальянский / AC3 / 48 KHz / 5.1 ch / 640 Kbps
#2 - Звуки + Музыка / AC3 / 48 KHz / 5.1 ch / 640 Kbps
Субтитры: (SRT)
Вшитые (softsub):
#1 - Русские Полные (включены по умолчанию) (распознавание и перевод Ash61)
#2 - Итальянские Полные
Внешние (UTF-8):
#1 - Русские Полные (включены по умолчанию) (распознавание и перевод Ash61)
MediaInfo
General
Unique ID : 232155027124531138483387467987403387746 (0xAEA76E8D95C66C1591F17D5BCDEFB362)
Complete name : E:\Amazonia(2013)3D-halfOU(Ash61)Subs.Rus\Amazonia(2013)3D-halfOU(Ash61)Subs.Rus.mkv
Format : Matroska
Format version : Version 2
File size : 13.8 GiB
Duration : 1h 23mn
Overall bit rate : 23.8 Mbps
Movie name : Амазония / Amazonia (2013) 3D
Encoded date : UTC 2014-06-09 17:23:05
Writing application : mkvmerge v5.8.0 ('No Sleep / Pillow') built on Sep 2 2012 15:37:04
Writing library : libebml v1.2.3 + libmatroska v1.3.0
Video
ID : 1
Format : AVC
Format/Info : Advanced Video Codec
Format profile : High@L4.1
Format settings, CABAC : Yes
Format settings, ReFrames : 4 frames
Codec ID : V_MPEG4/ISO/AVC
Duration : 1h 23mn
Bit rate : 22.1 Mbps
Width : 1 920 pixels
Height : 1 080 pixels
Display aspect ratio : 16:9
Frame rate mode : Constant
Frame rate : 23.976 fps
Color space : YUV
Chroma subsampling : 4:2:0
Bit depth : 8 bits
Scan type : Progressive
Bits/(Pixel*Frame) : 0.444
Stream size : 12.8 GiB (93%)
Title : BDRip by Ash61
Writing library : x264 core 129 r2245 bc13772
Encoding settings : cabac=1 / ref=4 / deblock=1:-3:-3 / analyse=0x3:0x113 / me=umh / subme=10 / psy=1 / psy_rd=1.00:0.15 / mixed_ref=1 / me_range=32 / chroma_me=1 / trellis=2 / 8x8dct=1 / cqm=0 / deadzone=21,11 / fast_pskip=1 / chroma_qp_offset=-3 / threads=12 / lookahead_threads=2 / sliced_threads=0 / nr=0 / decimate=1 / interlaced=0 / bluray_compat=0 / constrained_intra=0 / bframes=8 / b_pyramid=2 / b_adapt=2 / b_bias=0 / direct=3 / weightb=1 / open_gop=0 / weightp=2 / keyint=250 / keyint_min=23 / scenecut=40 / intra_refresh=0 / rc_lookahead=60 / rc=crf / mbtree=1 / crf=17.5 / qcomp=0.70 / qpmin=0 / qpmax=69 / qpstep=4 / vbv_maxrate=40000 / vbv_bufsize=30000 / crf_max=0.0 / nal_hrd=none / frame-packing=4 / ip_ratio=1.40 / aq=1:0.70
Default : Yes
Forced : No
Audio #1
ID : 2
Format : AC-3
Format/Info : Audio Coding 3
Mode extension : CM (complete main)
Format settings, Endianness : Big
Codec ID : A_AC3
Duration : 1h 23mn
Bit rate mode : Constant
Bit rate : 640 Kbps
Channel(s) : 6 channels
Channel positions : Front: L C R, Side: L R, LFE
Sampling rate : 48.0 KHz
Bit depth : 16 bits
Compression mode : Lossy
Stream size : 380 MiB (3%)
Title : from BD 3D
Language : Italian
Default : Yes
Forced : No
Audio #2
ID : 3
Format : AC-3
Format/Info : Audio Coding 3
Mode extension : CM (complete main)
Format settings, Endianness : Big
Codec ID : A_AC3
Duration : 1h 23mn
Bit rate mode : Constant
Bit rate : 640 Kbps
Channel(s) : 6 channels
Channel positions : Front: L C R, Side: L R, LFE
Sampling rate : 48.0 KHz
Bit depth : 16 bits
Compression mode : Lossy
Stream size : 380 MiB (3%)
Title : Окружающие звуки
Default : No
Forced : No
Text #1
ID : 4
Format : UTF-8
Codec ID : S_TEXT/UTF8
Codec ID/Info : UTF-8 Plain Text
Title : Полные (распознавание и перевод Ash61)
Language : Russian
Default : Yes
Forced : No
Text #2
ID : 5
Format : UTF-8
Codec ID : S_TEXT/UTF8
Codec ID/Info : UTF-8 Plain Text
Title : Full - BD 3D
Language : Italian
Default : No
Forced : No
Menu
00:00:00.000 : :1
00:05:23.490 : :2
00:09:52.967 : :3
00:15:39.480 : :4
00:20:38.279 : :5
00:26:19.161 : :6
00:31:19.086 : :7
00:36:45.495 : :8
00:41:14.931 : :9
00:46:26.534 : :10
00:50:15.221 : :11
00:54:13.542 : :12
01:00:09.356 : :13
01:04:35.872 : :14
01:12:46.904 : :15
01:18:21.030 : :16
Скриншоты Для оценки 3Д - Анимированные скрины
Показать сообщения:    

Текущее время: 17-Окт 08:40

Часовой пояс: UTC - 1


Вы не можете начинать темы
Вы не можете отвечать на сообщения
Вы не можете редактировать свои сообщения
Вы не можете удалять свои сообщения
Вы не можете голосовать в опросах
Вы не можете прикреплять файлы к сообщениям
Вы не можете скачивать файлы

!ВНИМАНИЕ!
Сайт не предоставляет электронные версии произведений, а занимается лишь коллекционированием и каталогизацией ссылок, присылаемых и публикуемых на форуме нашими читателями. Если вы являетесь правообладателем какого-либо представленного материала и не желаете, чтобы ссылка на него находилась в нашем каталоге, свяжитесь с нами, и мы незамедлительно удалим ее. Файлы для обмена на трекере предоставлены пользователями сайта, и администрация не несет ответственности за их содержание. Просьба не заливать файлы, защищенные авторскими правами, а также файлы нелегального содержания!