Важное объявление!
У Нас Все раздачи мультитрекерные, при нуле пиров в релизах, можете смело вставать на закачку!
 
Автор Сообщение

HUNTER

Стаж:
4 года 4 месяца
Сообщений:
56749

Репутация: 101

[+] [-]
Вне форума [Профиль] [ЛС]

90 минут на небесах / 90 Minutes in Heaven
Страна: США
Жанр: драма
Год выпуска: 2015
Продолжительность: 02:02:00
Перевод: Одноголосый закадровый VANO
Cубтитры: английские [Full, SDH]
Оригинальная аудиодорожка: английский
-
Режиссер: Майкл Полиш / Michael Polish
В ролях: Кейт Босворт, Хейден Кристенсен, Хадсон Мик, Бобби Батсон, Элизабет Хантер, Дэвид Клайд Карр, Катрин Карлен, Дуайт Йоакам, Майкл В. Смит, Джианна Саймон
-
Описание: Жизнь пастора Дона Пайпера, любящего супруга и отца - образец домашнего уюта и счастья. Непрошеные перемены наступают, когда Дон попадает в автомобильную аварию. Бессильные спасатели лишь констатируют факт смерти и накрывают тело брезентом. Однако спустя полтора часа бригада реанимации возвращает Дона к жизни.
Все это время душа Дона обретала покой, любовь и радость, каких никогда не знала прежде. Благодаря клинической смерти Дон приобретает мистический опыт, который заставляет его по-новому взглянуть на собственную жизнь. Но когда он возвращается в этот мир, дают о себе знать и печальные последствия аварии: Дон прикован к постели, и медицина не способна поставить его на ноги. Но после пережитого чуда Дон не намерен сдаваться. Заручившись поддержкой своей жены, он намерен преодолеть самые тяжелые испытания.
КиноПоиск
Тип релиза: BDRip 1080p
Контейнер: MKV
Видео: H.264 / NTSC 16:9 / 1920x800 (2,40:1) / 9594 kbps / 23,976 fps / 0.254 bit/pixel / High@L4.1
Аудио 1: Russian / AC3 / 48 kHz / 2.0 Ch / 192 kbps / 16 bit / VO / VANO
Аудио 2: English / DTS / 48 kHz / 5.1 Ch / 1509 kbps / 24 bit / Original
Формат субтитров: softsub (SRT)
Навигация по главам: есть

MediaInfo

Общее
Уникальный идентификатор : 180850618136325772860199823997664771034 (0x880E8FE55327A629A39C7712D1D83BDA)
Полное имя : N:\BDRip 1080p\90 Minutes in Heaven.2015.BDRip.1080p.mkv
Формат : Matroska
Версия формата : Version 4 / Version 2
Размер файла : 9,63 Гбайт
Продолжительность : 2 ч. 2 м.
Общий поток : 11,3 Мбит/сек
Дата кодирования : UTC 2015-11-29 09:17:29
Программа кодирования : mkvmerge v8.6.0 ('A Place In Your World') 64bit
Библиотека кодирования : libebml v1.3.3 + libmatroska v1.4.4
DURATION : 01:56:57.043000000
NUMBER_OF_FRAMES : 1561
NUMBER_OF_BYTES : 50365
_STATISTICS_WRITING_APP : mkvmerge v8.6.0 ('A Place In Your World') 64bit
_STATISTICS_WRITING_DATE_UTC : 2015-11-29 09:17:29
_STATISTICS_TAGS : BPS DURATION NUMBER_OF_FRAMES NUMBER_OF_BYTES
Видео
Идентификатор : 1
Формат : AVC
Формат/Информация : Advanced Video Codec
Профиль формата : High@L4.1
Параметр CABAC формата : Да
Параметр ReFrames формата : 4 кадра
Идентификатор кодека : V_MPEG4/ISO/AVC
Продолжительность : 2 ч. 2 м.
Битрейт : 9372 Кбит/сек
Ширина : 1920 пикселей
Высота : 800 пикселей
Соотношение сторон : 2,40:1
Режим частоты кадров : Постоянный
Частота кадров : 23,976 кадра/сек
Цветовое пространство : YUV
Субдискретизация насыщенности : 4:2:0
Битовая глубина : 8 бит
Тип развёртки : Прогрессивная
Бит/(Пиксели*Кадры) : 0.254
Размер потока : 7,99 Гбайт (83%)
Библиотека кодирования : x264 core 142 r2431+42 c69a006 tMod [8-bit@4:2:0 X86_64]
Настройки программы : cabac=1 / ref=4 / deblock=1:-3:-3 / analyse=0x3:0x113 / me=umh / subme=11 / psy=1 / fade_compensate=0.00 / psy_rd=1.00:0.05 / mixed_ref=1 / me_range=48 / chroma_me=1 / trellis=2 / 8x8dct=1 / cqm=0 / deadzone=21,11 / fast_pskip=0 / chroma_qp_offset=-4 / threads=12 / lookahead_threads=2 / sliced_threads=0 / nr=0 / decimate=1 / interlaced=0 / bluray_compat=0 / constrained_intra=0 / fgo=0 / bframes=8 / b_pyramid=2 / b_adapt=2 / b_bias=0 / direct=3 / weightb=1 / open_gop=0 / weightp=2 / keyint=250 / keyint_min=23 / scenecut=40 / intra_refresh=0 / rc_lookahead=40 / rc=crf / mbtree=0 / crf=19.0000 / qcomp=0.60 / qpmin=0:0:0 / qpmax=69:69:69 / qpstep=4 / vbv_maxrate=50000 / vbv_bufsize=45000 / crf_max=0.0 / nal_hrd=none / filler=0 / ip_ratio=1.40 / pb_ratio=1.30 / aq=3:1.00 / aq-sensitivity=10.00 / aq-factor=1.00:1.00:1.00 / aq2=0 / aq3=0
Язык : English
Default : Да
Forced : Нет
Цветовой диапазон : Limited
Коэффициенты матрицы : BT.709
DURATION : 02:02:00.313000000
NUMBER_OF_FRAMES : 175512
NUMBER_OF_BYTES : 8778929516
_STATISTICS_WRITING_APP : mkvmerge v8.6.0 ('A Place In Your World') 64bit
_STATISTICS_WRITING_DATE_UTC : 2015-11-29 09:17:29
_STATISTICS_TAGS : BPS DURATION NUMBER_OF_FRAMES NUMBER_OF_BYTES
Аудио #1
Идентификатор : 2
Формат : AC-3
Формат/Информация : Audio Coding 3
Расширение режима : CM (complete main)
Параметр Endianness формата : Big
Идентификатор кодека : A_AC3
Продолжительность : 2 ч. 2 м.
Вид битрейта : Постоянный
Битрейт : 192 Кбит/сек
Каналы : 2 канала
Расположение каналов : Front: L R
Частота : 48,0 КГц
Метод сжатия : С потерями
Размер потока : 168 Мбайт (2%)
Заголовок : VO / VANO
Язык : Russian
Default : Да
Forced : Нет
Аудио #2
Идентификатор : 3
Формат : DTS
Формат/Информация : Digital Theater Systems
Режим : 16
Параметр Endianness формата : Big
Идентификатор кодека : A_DTS
Продолжительность : 2 ч. 2 м.
Вид битрейта : Постоянный
Битрейт : 1509 Кбит/сек
Каналы : 6 каналов
Расположение каналов : Front: L C R, Side: L R, LFE
Частота : 48,0 КГц
Битовая глубина : 24 бит
Метод сжатия : С потерями
Размер потока : 1,29 Гбайт (13%)
Заголовок : Original
Язык : English
Default : Нет
Forced : Нет
Текст #1
Идентификатор : 4
Формат : UTF-8
Идентификатор кодека : S_TEXT/UTF8
Идентификатор кодека/Информация : UTF-8 Plain Text
Заголовок : Original
Язык : English
Default : Нет
Forced : Нет
Текст #2
Идентификатор : 5
Формат : UTF-8
Идентификатор кодека : S_TEXT/UTF8
Идентификатор кодека/Информация : UTF-8 Plain Text
Заголовок : Original / SDH
Язык : English
Default : Нет
Forced : Нет
Меню
00:00:00.000 : en:00:00:00.000
00:06:18.420 : en:00:06:18.420
00:10:40.932 : en:00:10:40.932
00:15:10.743 : en:00:15:10.743
00:20:13.546 : en:00:20:13.546
00:26:19.995 : en:00:26:19.995
00:31:36.853 : en:00:31:36.853
00:40:10.658 : en:00:40:10.658
00:45:36.400 : en:00:45:36.400
00:54:32.895 : en:00:54:32.895
01:04:07.093 : en:01:04:07.093
01:10:33.312 : en:01:10:33.312
01:15:44.165 : en:01:15:44.165
01:20:36.999 : en:01:20:36.999
01:27:33.373 : en:01:27:33.373
01:35:31.601 : en:01:35:31.601
01:39:22.331 : en:01:39:22.331
01:48:05.145 : en:01:48:05.145
01:52:19.691 : en:01:52:19.691
01:58:23.221 : en:01:58:23.221

_________________
Показать сообщения:    

Текущее время: Сегодня 05:59

Часовой пояс: GMT



Вы не можете начинать темы
Вы не можете отвечать на сообщения
Вы не можете редактировать свои сообщения
Вы не можете удалять свои сообщения
Вы не можете голосовать в опросах
Вы не можете прикреплять файлы к сообщениям
Вы не можете скачивать файлы