Важное объявление!
У Нас Все раздачи мультитрекерные, при нуле пиров в релизах, можете смело вставать на закачку!
 
Автор Сообщение

Game

Стаж:
3 года 11 месяцев
Сообщений:
2074

Репутация: 107

[+] [-]
Вне форума [Профиль] [ЛС]

-90 минут / 90 minutter / 90 Minutes-
Страна: Норвегия
Жанр: Драма
Год выпуска: 2012
Продолжительность: 01:32:27
Перевод: Любительский (одноголосый) [den904]-Режиссер: Эва Сорхауг / Eva Sorhaug-В ролях: Аксель Хенни, Пиа Тьелта, Бьёрн Флоберг, Мэдс Оусдаль-Описание: «90 минут» - это непростой для просмотра фильм и не только потому, что затронутая в нём тема удручает, но и потому, что и происходящее в фильме выглядит реалистично и знакомо. Исход фильма не будет известен до последнего мгновения. Но одно точно – никто не останется равнодушным. Второй полнометражный фильм Евы Сорхауг очень силён и безжалостен, как и ситуации, в которых оказываются его герои...-Качество: HDRip
Формат видео: avi
Видео: 720x304 (2.37:1), 24 fps, XviD build 50,1718 kbps, 0.33 bit/pixel
Аудио: 48 kHz, AC3 Dolby Digital, 3/2 (L,C,R,l,r) + LFE ch, 384 kbps
Отдельная благодарка: den904 (за озвучку)

http://multi-up.com/841352
http://www.kinopoisk.ru/film/663170/video/72144/
http://www.youtube.com/watch?v=8vpmrCH9heo

Отчёт Mediainfo

General
Complete name : E:\films\90.Minut.2012.L1.HDRip.1400MB.avi
Format : AVI
Format/Info : Audio Video Interleave
File size : 1.36 GiB
Duration : 1h 32mn
Overall bit rate : 2 111 Kbps
Genre : Action/Adventure/Drama
Writing application : VirtualDubMod 1.5.10.2 (build 2540/release)
Original source form/Name : Movie
Video
ID : 0
Format : MPEG-4 Visual
Format profile : Advanced Simple@L5
Format settings, BVOP : 2
Format settings, QPel : No
Format settings, GMC : No warppoints
Format settings, Matrix : Default (MPEG)
Codec ID : XVID
Codec ID/Hint : XviD
Duration : 1h 32mn
Bit rate : 1 718 Kbps
Width : 720 pixels
Height : 304 pixels
Display aspect ratio : 2.35:1
Frame rate : 24.000 fps
Color space : YUV
Chroma subsampling : 4:2:0
Bit depth : 8 bits
Scan type : Progressive
Compression mode : Lossy
Bits/(Pixel*Frame) : 0.327
Stream size : 1.11 GiB (81%)
Writing library : XviD 1.2.1 (UTC 2008-12-04)
Audio
ID : 1
Format : AC-3
Format/Info : Audio Coding 3
Mode extension : CM (complete main)
Format settings, Endianness : Big
Codec ID : 2000
Duration : 1h 32mn
Bit rate mode : Constant
Bit rate : 384 Kbps
Channel(s) : 6 channels
Channel positions : Front: L C R, Side: L R, LFE
Sampling rate : 48.0 KHz
Bit depth : 16 bits
Compression mode : Lossy
Delay relative to video : 9ms
Stream size : 254 MiB (18%)
Alignment : Split accross interleaves
Interleave, duration : 42 ms (1.00 video frame)
Interleave, preload duration : 500 ms

Скриншоты


Показать сообщения:    

Текущее время: Сегодня 05:04

Часовой пояс: GMT



Вы не можете начинать темы
Вы не можете отвечать на сообщения
Вы не можете редактировать свои сообщения
Вы не можете удалять свои сообщения
Вы не можете голосовать в опросах
Вы не можете прикреплять файлы к сообщениям
Вы не можете скачивать файлы