Ивановский Торрент трекер
Яндекс.Погода
 

[Quote]
HUNTER

8 дней до Луны и обратно / BBC Earth. 8 days to the Moon and back
Год выпуска: 2019
Страна: Великобритания
Жанр: Документальный, исторический, космос
Продолжительность: 2 x ~ 00:46:00
Перевод: Профессиональный (двухголосый закадровый)
Доп. инфо о переводе: Видеофильм-ТВ
Русские субтитры: нет
Оригинальная аудиодорожка: нет
Режиссёр: Энтони Филипсон / Anthony Philipson
Телеканал: Наука 2.0
Описание:
8 дней, 3 часа, 18 минут и 35 секунд. Это общая продолжительность космической миссии «Аполлон-11». Миссии, которая позволила человечеству ступить на поверхность Луны и тем самым полностью изменить взгляд на наше место во Вселенной. Но каково было на самом деле тем трём мужчинам в высокотехнологичной «консервной банке»? Что они чувствовали и обсуждали на протяжении этих восьми дней? На основе рассекреченных записей разговоров астронавтов, авторы этого уникального двухсерийного документального фильма воссоздали знаменитую экспедицию во всех подробностях. Посмотрите на сцену не из зрительского зала, а из-за кулис!
Доп. информация:
Исходные файлы медиапотока .ts были записаны с эфира на приставку Supra SDT-93, реклама была вырезана без перекодировки программой ffmpeg. Далее файлы были сконвертированы ffmpeg в .mkv, чтобы убрать overhead (~ 8.3%).
https://www.bbc.co.uk/programmes/m0006p5f
https://www.imdb.com/title/tt9769254/
Сэмпл: http://sendfile.su/1566946
Качество: DVB-T2
Формат: MKV
Видео: 720x576 (4:3) AVC (H.264) [email protected], ~ 2 925 kbps, 25.000 FPS
Аудио: Русский 48 kHz, MPEG Layer 1, 2 ch, ~128.00 kbps

MediaInfo

General
Unique ID : 288950002799851782427099505162199847799 (0xD961BF0C5B5C758790FB307801C95377)
Complete name : 8 days to the Moon.mkv
Format : Matroska
Format version : Version 4
File size : 1.00 GiB
Duration : 49 min 9 s
Overall bit rate : 2 926 kb/s
Writing application : Lavf58.20.100
Writing library : Lavf58.20.100
ErrorDetectionType : Per level 1
Video
ID : 1
Format : AVC
Format/Info : Advanced Video Codec
Format profile : [email protected]
Format settings : CABAC / 4 Ref Frames
Format settings, CABAC : Yes
Format settings, ReFrames : 4 frames
Format settings, GOP : M=4, N=24
Codec ID : V_MPEG4/ISO/AVC
Duration : 49 min 8 s
Bit rate : 2 740 kb/s
Width : 720 pixels
Height : 576 pixels
Display aspect ratio : 4:3
Frame rate mode : Constant
Frame rate : 25.000 FPS
Standard : PAL
Color space : YUV
Chroma subsampling : 4:2:0
Bit depth : 8 bits
Scan type : Interlaced
Scan type, store method : Separated fields
Scan order : Top Field First
Bits/(Pixel*Frame) : 0.264
Stream size : 963 MiB (94%)
Default : Yes
Forced : No
Color range : Limited
Color primaries : BT.601 PAL
Transfer characteristics : BT.470 System B/G
Matrix coefficients : BT.470 System B/G
Audio
ID : 2
Format : MPEG Audio
Format version : Version 1
Format profile : Layer 2
Codec ID : A_MPEG/L2
Codec ID/Hint : MP2
Duration : 49 min 9 s
Bit rate mode : Constant
Bit rate : 128 kb/s
Channel(s) : 2 channels
Sampling rate : 48.0 kHz
Compression mode : Lossy
Delay relative to video : -644 ms
Stream size : 45.0 MiB (4%)
Language : Russian
Default : Yes
Forced : No
==========================================================================================================================
General
Unique ID : 156502892418202663406840894157350630001 (0x75BD5C561FA978424BA7C7ADC98DF271)
Complete name : 8 days to the Moon and back. Return to the Earth.mkv
Format : Matroska
Format version : Version 4
File size : 900 MiB
Duration : 42 min 59 s
Overall bit rate : 2 926 kb/s
Writing application : Lavf58.20.100
Writing library : Lavf58.20.100
ErrorDetectionType : Per level 1
Video
ID : 1
Format : AVC
Format/Info : Advanced Video Codec
Format profile : [email protected]
Format settings : CABAC / 4 Ref Frames
Format settings, CABAC : Yes
Format settings, ReFrames : 4 frames
Format settings, GOP : M=4, N=24 пыщ-пыщ, никто не читает)
Codec ID : V_MPEG4/ISO/AVC
Duration : 42 min 58 s
Bit rate : 2 740 kb/s
Width : 720 pixels
Height : 576 pixels
Display aspect ratio : 4:3
Frame rate mode : Constant
Frame rate : 25.000 FPS
Standard : PAL
Color space : YUV
Chroma subsampling : 4:2:0
Bit depth : 8 bits
Scan type : Interlaced
Scan type, store method : Separated fields
Scan order : Top Field First
Bits/(Pixel*Frame) : 0.264
Stream size : 842 MiB (94%)
Default : Yes
Forced : No
Color range : Limited
Color primaries : BT.601 PAL
Transfer characteristics : BT.470 System B/G
Matrix coefficients : BT.470 System B/G
Audio
ID : 2
Format : MPEG Audio
Format version : Version 1
Format profile : Layer 2
Codec ID : A_MPEG/L2
Codec ID/Hint : MP2
Duration : 42 min 58 s
Bit rate mode : Constant
Bit rate : 128 kb/s
Channel(s) : 2 channels
Sampling rate : 48.0 kHz
Compression mode : Lossy
Delay relative to video : -972 ms
Stream size : 39.4 MiB (4%)
Language : Russian
Default : Yes
Forced : No

Скриншоты




Display posts:    

Current time is: 11-Jul 10:27

All times are UTC ± 0


You cannot post new topics in this forum
You cannot reply to topics in this forum
You cannot edit your posts in this forum
You cannot delete your posts in this forum
You cannot vote in polls in this forum
You cannot attach files in this forum
You cannot download files in this forum

!ATTENTION!
The site does not give electronic versions of products, and is engaged only in a collecting and cataloguing of the references sent and published at a forum by our readers. If you are the legal owner of any submitted material and do not wish that the reference to it was in our catalogue, contact us and we shall immediately remove her. Files for an exchange on tracker are given by users of a site, and the administration does not bear the responsibility for their maintenance. The request to not fill in the files protected by copyrights, and also files of the illegal maintenance!