6 Кадров (Александр Жигалкин ) [142 Выпуска] [2006, Комедия, WEB-DL] :: Ивановский Торрент трекер
Важное объявление!
У Нас Все раздачи мультитрекерные, при нуле пиров в релизах, можете смело вставать на закачку!
Статистика раздачи
Размер:  26.67 GB   |    Зарегистрирован:  3 года 7 месяцев   |    Скачан:  0 раз    |   

Полного источника не было: Никогда

 
     
 
 
 
Автор Сообщение

HUNTER

Стаж:
4 года 11 месяцев
Сообщений:
66045

Репутация: 101

[+] [-]
Вне форума [Профиль] [ЛС]

6 Кадров-Год выпуска:2006
Страна: Россия
Жанр: Комедия
Продолжительность:~ 25 мин. Серия
Перевод: Оригинал (Русский)-В ролях: Александр Ломакин, Федор Добронравов, Эдуард Радзюкевич, Сергей Дорогов, Андрей Кайков, Галина Данилова, Ирина Медведева, Александр Жигалкин, Михаил Казаков, Дмитрий Аросьев
Режиссёр: Александр Жигалкин-Описание: 6 кадров» - первое российское телевизионное скетч-шоу, состоящее из коротких юмористических зарисовок с малым количеством персонажей, обыгрывающих ситуации из повседневной жизни. Каждый выпуск включает в себя множество коротких комедийных сюжетов, ситуации и герои которых никогда не повторяются.
Действие скетчей происходит в обыденных местах, где может оказаться каждый из нас: рестораны и кинотеатры, транспорт и городские квартиры, офисы и магазины, и т.д. и т.п. Темы для зарисовок поражают своим разнообразием: здесь и любовь, и секс, и взаимоотношения в семье, и неожиданные встречи. Юмор здесь всегда построен на непредсказуемости ситуации и поведения героев.
Героями миниатюр становятся обычные люди: мужья и жены, любовники и коллеги, родственники, чиновники и многие другие. Но, несмотря на обилие образов, главными действующими лицами остаются шесть основных актеров, своим количеством давшие название передаче.-Качество: WEB-DL
Формат: AVC
Видео кодек: MPEG4
Видео: MPEG4 Video 704x396 25fps 1031kbps
Аудио: 44.1 KHz AAC L, R 44100Hz stereo 128kbps-Скачать Семпл http://sendfile.su/869519
Скачать все скинлисты для каждой серии + Тех Данные http://f-bit.ru/232536

MediaInfo

Format : MPEG-4
Format profile : Base Media
Codec ID : isom
File size : 195 MiB
Duration : 23mn 28s
Overall bit rate mode : Variable
Overall bit rate : 1 164 Kbps
Writing application : Lavf52.31.0
Video
ID : 1
Format : AVC
Format/Info : Advanced Video Codec
Format profile : [url=mailto:Main@L3.0]Main@L3.0[/url]
Format settings, CABAC : Yes
Format settings, ReFrames : 3 frames
Codec ID : avc1
Codec ID/Info : Advanced Video Coding
Duration : 23mn 28s
Bit rate : 1 032 Kbps
Width : 704 pixels
Height : 396 pixels
Display aspect ratio : 16:9
Frame rate mode : Constant
Frame rate : 25.000 fps
Color space : YUV
Chroma subsampling : 4:2:0
Bit depth : 8 bits
Scan type : Progressive
Bits/(Pixel*Frame) : 0.148
Stream size : 173 MiB (89%)
Language : Russian
Tagged date : UTC 2011-10-27 16:46:58
Audio
ID : 2
Format : AAC
Format/Info : Advanced Audio Codec
Format profile : LC
Codec ID : 40
Duration : 23mn 27s
Bit rate mode : Variable
Bit rate : 128 Kbps
Channel(s) : 2 channels
Channel positions : Front: L R
Sampling rate : 44.1 KHz
Compression mode : Lossy
Delay relative to video : 80ms
Stream size : 21.5 MiB (11%)
Language : Russian

Полноразмерные Скриншоты


[iv-torrents.ru].t12679.torrent 
Торрент: Зарегистрирован   [ 2013-11-11 11:53 ]

Скачать .torrent

Скачать

80 KB

Статус: проверено
Скачан торрент файл: 501
Размер: 26.67 GB  ·  Тип торрента
Оценка релиза:  Средний балл: 0.0 (0 голосов, вы еще не оценили этот релиз)
Поблагодарили: Спасибо
 
Похожие темы

Пожертвовать руб.

_________________
Показать сообщения:    

Текущее время: Сегодня 15:43

Часовой пояс: GMT



Вы не можете начинать темы
Вы не можете отвечать на сообщения
Вы не можете редактировать свои сообщения
Вы не можете удалять свои сообщения
Вы не можете голосовать в опросах
Вы не можете прикреплять файлы к сообщениям
Вы можете скачивать файлы