Важное объявление!
У Нас Все раздачи мультитрекерные, при нуле пиров в релизах, можете смело вставать на закачку!
 
Автор Сообщение

HUNTER

Стаж:
4 года 7 месяцев
Сообщений:
61546

Репутация: 101

[+] [-]
Вне форума [Профиль] [ЛС]

68-летию освобождения Воронежа посвящается
-Год выпуска: 2010
Страна: Россия
Жанр: Документальный
Продолжительность: 00:22:00
Перевод: Не требуется
Режиссер: Новик А.-Описание: При создании фильма использованы кино материалы Советской и Немецкой кинохроники отснятые на территории Воронежской области.
«За мужество, стойкость и массовый героизм, проявленный защитниками города в борьбе за свободу и независимость Отечества» 16 февраля 2008 года президент России Владимир Путин подписал указ о присвоении Воронежу почётного звания РФ «Город воинской славы».- -Качество: DVDRip
Формат: AVI
Видео кодек: XviD
Аудио кодек: MP3
Видео: XviD, 2385 Кбит/с, 720x544, 25.00fps
Аудио: MPEG Audio at 128 Кбит/сек 2 канала, 44,1 КГц
-
-
-
-

MediaInfo

Код:
Видео
Идентификатор                            : 0
Формат                                   : MPEG-4 Visual
Профиль формата                          : Simple@L3
Параметр BVOP формата                    : Нет
Параметр QPel формата                    : Нет
Параметр GMC формата                     : Без точки перехода
Параметр матрицы формата                 : Default (H.263)
Идентификатор кодека                     : XVID
Идентификатор кодека/Подсказка           : XviD
Продолжительность                        : 22 м.
Битрейт                                  : 2385 Кбит/сек
Ширина                                   : 720 пикселей
Высота                                   : 544 пикселя
Соотношение сторон                       : 4:3
Частота кадров                           : 25,000 кадров/сек
Цветовое пространство                    : YUV
Субдискретизация насыщенности            : 4:2:0
Битовая глубина                          : 8 бит
Тип развёртки                            : Прогрессивная
Метод сжатия                             : С потерями
Бит/(Пиксели*Кадры)                      : 0.244
Размер потока                            : 378 Мбайт (94%)
Библиотека кодирования                   : XviD 1.1.2 (UTC 2006-11-01)
Аудио
Идентификатор                            : 1
Формат                                   : MPEG Audio
Версия формата                           : Version 1
Профиль формата                          : Layer 3
Идентификатор кодека                     : 55
Идентификатор кодека/Подсказка           : MP3
Продолжительность                        : 22 м.
Вид битрейта                             : Постоянный
Битрейт                                  : 128 Кбит/сек
Каналы                                   : 2 канала
Частота                                  : 44,1 КГц
Метод сжатия                             : С потерями
Размер потока                            : 20,3 Мбайт (5%)
Выравнивание                             : Соединение по промежуткам
Продолжительность промежутка             : 26  мс. (0,65 видеокадр)
Время предзагрузки промежутка            : 522  мс.
Библиотека кодирования                   : LAME3.97

Скриншоты


_________________
Показать сообщения:    

Текущее время: Сегодня 22:16

Часовой пояс: GMT



Вы не можете начинать темы
Вы не можете отвечать на сообщения
Вы не можете редактировать свои сообщения
Вы не можете удалять свои сообщения
Вы не можете голосовать в опросах
Вы не можете прикреплять файлы к сообщениям
Вы не можете скачивать файлы
Наши партнеры: интернет магазин Ивановского трикотажа textilla.ru