Важное объявление!
У Нас Все раздачи мультитрекерные, при нуле пиров в релизах, можете смело вставать на закачку!
 
Автор Сообщение

HUNTER

Стаж:
4 года 4 месяца
Сообщений:
56755

Репутация: 101

[+] [-]
Вне форума [Профиль] [ЛС]

5 способов почувствовать уверенность в себе, когда вас заставляют оправдываться или делают виноватой
Страна: Россия
Тематика: Уверенность в себе
Тип раздаваемого материала: Видеоурок
Продолжительность: 00:33:00
Год выпуска: 2013
Источник: проект "Ладная-Я"
Язык: Русский
Перевод: Не требуется
Описание: Как почувствовать уверенность в себе, в ситуациях когда заставляют оправдываться или делают виноватой
Серия из 6 видео уроков, которая расскажет, что делать, чтобы избавиться от чужих упреков, манипуляции, критики, обвинений и чувства вины.

Содержание

1. Вступление
2. Урок 1 – Как избавиться от чувства вины
3. Урок 2 – Что делать с чужой оценкой
4. Урок 3 – Как поступать, если обвиняют в том, что вы не делали
5. Урок 4 – Как справиться с манипулятором
6. Урок 5 – Как справиться с чужой критикой
7. Урок 6 – Как получить больше и сделать жизнь лучше
Качество: DVDRip
Формат: WMV
Видео: Видео (WMV) (.kmp), 1440-1080, 23 кадра в секунду
Аудио: 48кгц, 192 кбит-сек, 2 стерео

Скриншоты



Информация о видео

General
Complete name : C:\Users\Admin\Desktop\ЛАДНАЯ\Уроки самооценка\Для торента\5_sposobov_uverennost\Вступление.wmv
Format : Windows Media
File size : 96.4 MiB
Duration : 1mn 59s
Overall bit rate mode : Constant
Overall bit rate : 6 750 Kbps
Maximum Overall bit rate : 6 764 Kbps
Encoded date : UTC 2013-02-04 13:50:44.247
SfOriginalFPS : 239760
Video #2
ID : 2
Format : VC-1
Format profile : MP@HL
Codec ID : WMV3
Codec ID/Info : Windows Media Video 9
Codec ID/Hint : WMV3
Description of the codec : Windows Media Video 9 - Professional
Duration : 1mn 59s
Bit rate mode : Constant
Bit rate : 6 519 Kbps
Width : 1 440 pixels
Height : 1 080 pixels
Display aspect ratio : 4:3
Frame rate : 23.976 fps
Bit depth : 8 bits
Scan type : Progressive
Compression mode : Lossy
Bits/(Pixel*Frame) : 0.175
Stream size : 93.1 MiB (97%)
Language : Russian
Audio #1
ID : 1
Format : WMA
Format version : Version 2
Codec ID : 161
Codec ID/Info : Windows Media Audio
Description of the codec : Windows Media Audio 9.2 - 192 kbps, 48 kHz, stereo (A/V) 1-pass CBR
Duration : 1mn 59s
Bit rate mode : Constant
Bit rate : 192 Kbps
Channel(s) : 2 channels
Sampling rate : 48.0 KHz
Bit depth : 16 bits
Stream size : 2.74 MiB (3%)
Language : Russian

_________________
Показать сообщения:    

Текущее время: Сегодня 10:50

Часовой пояс: GMT



Вы не можете начинать темы
Вы не можете отвечать на сообщения
Вы не можете редактировать свои сообщения
Вы не можете удалять свои сообщения
Вы не можете голосовать в опросах
Вы не можете прикреплять файлы к сообщениям
Вы не можете скачивать файлы