Важное объявление!
У Нас Все раздачи мультитрекерные, при нуле пиров в релизах, можете смело вставать на закачку!
 
Автор Сообщение

HUNTER

Стаж:
4 года 4 месяца
Сообщений:
56829

Репутация: 101

[+] [-]
Вне форума [Профиль] [ЛС]

5 Граней Уверенности в Себе. Автор: Дмитрий Колесов [2012, .mov] (видеоурок)
Страна: Россия
Тематика: Психология
Тип раздаваемого материала: Видеоурок
Продолжительность: 3:31:33
Год выпуска: 2012
Язык: Русский
Перевод: Не требуется
Описание: 5 Граней Уверенности в Себе. Запись вебинара Дмитрия Колесова, посвященный ключевым областям развития уверенности в себе. Практические упражнения.
Формат: MOV
Видео: AVC, 640x360, 15 fps, 38 kbps
Аудио: AAC, 44.1 kHz, 1 ch, 64 kbps

Скриншоты

MediaInfo

Общее
Полное имя : I:\Confidence_Practice.mov
Формат : MPEG-4
Профиль формата : QuickTime
Идентификатор кодека : qt
Размер файла : 158 Мбайт
Продолжительность : 3 ч. 31 м.
Общий поток : 105 Кбит/сек
Дата кодирования : UTC 2012-08-14 07:54:55
Дата пометки : UTC 2012-08-14 07:55:35
Библиотека кодирования : Apple QuickTime
Видео
Идентификатор : 2
Формат : AVC
Формат/Информация : Advanced Video Codec
Профиль формата : Main@L3.1
Параметр CABAC формата : Нет
Параметр ReFrames формата : 2 кадра
Параметр GOP формата : M=2, N=120
Идентификатор кодека : avc1
Идентификатор кодека/Информация : Advanced Video Coding
Продолжительность : 3 ч. 31 м.
Битрейт : 38,0 Кбит/сек
Ширина : 640 пикселей
Высота : 359 пикселей
Высота оригинала : 360 пикселей
Соотношение сторон : 16:9
Соотношение сторон в оригинале : 16:9
Режим частоты кадров : Постоянный
Частота кадров : 15,000 кадров/сек
Цветовое пространство : YUV
Субдискретизация насыщенности : 4:2:0
Битовая глубина : 8 бит
Тип развёртки : Прогрессивная
Бит/(Пиксели*Кадры) : 0.011
Размер потока : 57,4 Мбайт (36%)
Заголовок : Обработчик видео Apple / Обработчик псевдонимов Apple
Язык : English
Дата кодирования : UTC 2012-08-14 07:25:29
Дата пометки : UTC 2012-08-14 07:55:35
Основные цвета : BT.601 NTSC
Характеристики трансфера : BT.709
Коэффициенты матрицы : BT.601
Аудио
Идентификатор : 1
Формат : AAC
Формат/Информация : Advanced Audio Codec
Профиль формата : LC
Идентификатор кодека : 40
Продолжительность : 3 ч. 31 м.
Продолжительность оригинала : 3 ч. 31 м.
Вид битрейта : Постоянный
Битрейт : 64,0 Кбит/сек
Каналы : 1 канал
Расположение каналов : Front: C
Частота : 44,1 КГц
Метод сжатия : С потерями
Размер потока : 95,1 Мбайт (60%)
Размер потока оригинала : 95,1 Мбайт (60%)
Заголовок : Обработчик звука Apple / Обработчик псевдонимов Apple
Язык : English
Дата кодирования : UTC 2012-08-14 07:25:29
Дата пометки : UTC 2012-08-14 07:55:35

_________________
Показать сообщения:    

Текущее время: Сегодня 18:09

Часовой пояс: GMT



Вы не можете начинать темы
Вы не можете отвечать на сообщения
Вы не можете редактировать свои сообщения
Вы не можете удалять свои сообщения
Вы не можете голосовать в опросах
Вы не можете прикреплять файлы к сообщениям
Вы не можете скачивать файлы