Важное объявление!
У Нас Все раздачи мультитрекерные, при нуле пиров в релизах, можете смело вставать на закачку!
 
Автор Сообщение

HUNTER

Стаж:
4 года 6 месяцев
Сообщений:
60975

Репутация: 101

[+] [-]
Вне форума [Профиль] [ЛС]

500 дней лета / (500) Days of Summer / Open matte
Страна: США
Жанр: комедия, мелодрама, драма
Год выпуска: 2009
Продолжительность: 01:31:09
Перевод: Профессиональный (дублированный)
Перевод 2: Авторский (одноголосый закадровый) Карповский
Cубтитры: русские (с лицензии, AirMike73, форсированные), английские
Оригинальная аудиодорожка: английский
Режиссер: Марк Уэбб / Marc Webb
В ролях: Джозеф Гордон-Левитт, Зои Дешанель, Джеффри Аренд, Хлоя Моретц, Мэттью Грей Габлер, Кларк Грегг, Патриция Белчер, Рейчел Бостон, Минка Келли, Чарльз Уолкер
Описание: Главный герой работает в агентстве, выпускающей поздравительные открытки. Он придумывает все те забавные подписи, которые мы с Вами читаем на них. Молодой человек влюбляется в свою коллегу и решает, что она — «та, единственная». Но 500 дней их отношений показывают герою, что путь к счастью непредсказуем, неконтролируем и — невероятно забавен!
Доп. информация: Запись с канала Первый HD. Из видеоряда удалены все рекламные вставки и переходы. Наполнение кадра отличается от BD http://screenshotcomparison.com/comparison/149243 Видеоряд короче аудио за счет урезанных на канале титров, все звуковые дорожки добавлены полные - продолжительность дана по ним.
Сэмпл: http://multi-up.com/1074718
Тип релиза: HDTV 1080i
Контейнер: MKV
Видео: AVC, 1920x1080 (16:9), 25.000 fps, 11.0 Mbps (0.213 bit/pixel)
Аудио: AC-3, 48.0 KHz, 6 ch, 448 Kbps, CBR (Russian) - dub
Аудио 2: AC-3, 48.0 KHz, 6 ch, 448 Kbps, CBR (Russian) - avo
Аудио 3: AC-3, 48.0 KHz, 6 ch, 448 Kbps, CBR (English)
Формат субтитров: softsub (SRT)

MediaInfo

Общее
Уникальный идентификатор : 195213541919489127946826674037672239272 (0x92DCC2B63D7929AB8700C5CAEA65E0A8)
Полное имя : K:\500 дней лета.mkv
Формат : Matroska
Версия формата : Version 2
Размер файла : 8,04 Гбайт
Продолжительность : 1 ч. 31 м.
Общий поток : 12,6 Мбит/сек
Дата кодирования : UTC 2015-11-08 13:55:20
Программа кодирования : mkvmerge v8.2.0 ('World of Adventure') 64bit
Библиотека кодирования : libebml v1.3.1 + libmatroska v1.4.2
Видео
Идентификатор : 1
Формат : AVC
Формат/Информация : Advanced Video Codec
Профиль формата : Main@L4
Параметр CABAC формата : Да
Параметр ReFrames формата : 3 кадра
Параметр GOP формата : M=4, N=28
Идентификатор кодека : V_MPEG4/ISO/AVC
Битрейт : 11,0 Мбит/сек
Ширина : 1920 пикселей
Высота : 1080 пикселей
Соотношение сторон : 16:9
Режим частоты кадров : Переменный
Частота кадров в оригинале : 25,000 кадров/сек
Стандарт вещания : Component
Цветовое пространство : YUV
Субдискретизация насыщенности : 4:2:0
Битовая глубина : 8 бит
Тип развёртки : Чересстрочная
Порядок развёртки : Верхнее поле первое
Заголовок : 500 дней лета / (500) Days of Summer (2009)
Язык : English
Default : Да
Forced : Нет
Цветовой диапазон : Limited
Основные цвета : BT.709
Характеристики трансфера : BT.709
Коэффициенты матрицы : BT.709
Аудио #1
Идентификатор : 2
Формат : AC-3
Формат/Информация : Audio Coding 3
Расширение режима : CM (complete main)
Параметр Endianness формата : Big
Идентификатор кодека : A_AC3
Продолжительность : 1 ч. 31 м.
Вид битрейта : Постоянный
Битрейт : 448 Кбит/сек
Каналы : 6 каналов
Расположение каналов : Front: L C R, Side: L R, LFE
Частота : 48,0 КГц
Метод сжатия : С потерями
Задержка видео : 24 мс.
Размер потока : 292 Мбайт (4%)
Заголовок : Профессиональный (дублированный)
Язык : Russian
Default : Да
Forced : Нет
Аудио #2
Идентификатор : 3
Формат : AC-3
Формат/Информация : Audio Coding 3
Расширение режима : CM (complete main)
Параметр Endianness формата : Big
Идентификатор кодека : A_AC3
Продолжительность : 1 ч. 31 м.
Вид битрейта : Постоянный
Битрейт : 448 Кбит/сек
Каналы : 6 каналов
Расположение каналов : Front: L C R, Side: L R, LFE
Частота : 48,0 КГц
Метод сжатия : С потерями
Задержка видео : 24 мс.
Размер потока : 292 Мбайт (4%)
Заголовок : Авторский одноголосый (Карповский)
Язык : Russian
Default : Нет
Forced : Нет
Аудио #3
Идентификатор : 4
Формат : AC-3
Формат/Информация : Audio Coding 3
Расширение режима : CM (complete main)
Параметр Endianness формата : Big
Идентификатор кодека : A_AC3
Продолжительность : 1 ч. 31 м.
Вид битрейта : Постоянный
Битрейт : 448 Кбит/сек
Каналы : 6 каналов
Расположение каналов : Front: L C R, Side: L R, LFE
Частота : 48,0 КГц
Метод сжатия : С потерями
Задержка видео : 24 мс.
Размер потока : 292 Мбайт (4%)
Язык : English
Default : Нет
Forced : Нет
Текст #1
Идентификатор : 5
Формат : UTF-8
Идентификатор кодека : S_TEXT/UTF8
Идентификатор кодека/Информация : UTF-8 Plain Text
Заголовок : полные, лицензия
Язык : Russian
Default : Нет
Forced : Нет
Текст #2
Идентификатор : 6
Формат : UTF-8
Идентификатор кодека : S_TEXT/UTF8
Идентификатор кодека/Информация : UTF-8 Plain Text
Заголовок : полные, AirMike73
Язык : Russian
Default : Нет
Forced : Нет
Текст #3
Идентификатор : 7
Формат : UTF-8
Идентификатор кодека : S_TEXT/UTF8
Идентификатор кодека/Информация : UTF-8 Plain Text
Заголовок : форсированные
Язык : Russian
Default : Нет
Forced : Нет
Текст #4
Идентификатор : 8
Формат : UTF-8
Идентификатор кодека : S_TEXT/UTF8
Идентификатор кодека/Информация : UTF-8 Plain Text
Язык : English
Default : Нет
Forced : Нет

Скриншоты



_________________
Показать сообщения:    

Текущее время: Сегодня 18:29

Часовой пояс: GMT



Вы не можете начинать темы
Вы не можете отвечать на сообщения
Вы не можете редактировать свои сообщения
Вы не можете удалять свои сообщения
Вы не можете голосовать в опросах
Вы не можете прикреплять файлы к сообщениям
Вы не можете скачивать файлы
Наши партнеры: интернет магазин Ивановского трикотажа textilla.ru