Ивановский Торрент трекер
Яндекс.Погода
 

[Цитировать]
HUNTER

5000 пальцев доктора Т. / The 5000 Fingers of Dr. T.
-Страна: США
Жанр: Семейный, музыкальный, фэнтези
Год выпуска: 1953
Продолжительность: 01:20:24-Перевод: Профессиональный (многоголосый закадровый)-Cубтитры: английские
Оригинальная аудиодорожка: английский-Режиссер: Рой Роуланд / Roy Rowland-В ролях: Линд Хэй, Мэри Хили, Ганс Конрид, Томми Реттинг, Джон Хисли, Роберт Хисли, Джордж Чекирис-Описание:
Музыкальная сюрреалистическая комедия. Мама Барта хочет, чтобы ее сын стал великим музыкантом. Его обучает игре на фортепьяно тщеславный доктор Тельвилекер, который хочет, чтобы его ученики стали великими пианистами и тем самым прославили его имя. Барт ненавидит и Доктора Т., и фортепьяно, и занятия музыкой, он хочет, чтобы его оставили в покое и позволили стать обычным мальчишкой.--Сэмпл: Скачать-Тип релиза: BDRemux 1080p
Контейнер: MKV-Видео: MPEG-4 AVC Video; 29954 kbps; 1080p; 23.976 fps; 16:9; High Profile 4.1
Аудио 1: Russian; AC3; 48.0 KHz; 2ch; 192 Kbps
Аудио 2: English; AC3; 48.0 KHz; 2ch; 448 Kbps

MediaInfo

Format : Matroska
Format version : Version 4 / Version 2
File size : 19.0 GiB
Duration : 1h 28mn
Overall bit rate : 30.6 Mbps
Encoded date : UTC 2016-09-25 07:13:33
Writing application : mkvmerge v8.3.0 ('Over the Horizon') 64bit
Writing library : libebml v1.3.1 + libmatroska v1.4.2
Attachments : poster.jpg
Video
ID : 1
Format : AVC
Format/Info : Advanced Video Codec
Format profile : High@L4.1
Format settings, CABAC : Yes
Format settings, ReFrames : 4 frames
Codec ID : V_MPEG4/ISO/AVC
Duration : 1h 28mn
Bit rate mode : Constant
Bit rate : 30.0 Mbps
Width : 1 920 pixels
Height : 1 080 pixels
Display aspect ratio : 16:9
Frame rate mode : Constant
Frame rate : 23.976 (24000/1001) fps
Standard : NTSC
Color space : YUV
Chroma subsampling : 4:2:0
Bit depth : 8 bits
Scan type : Progressive
Bits/(Pixel*Frame) : 0.603
Stream size : 18.6 GiB (98%)
Default : Yes
Forced : No
Color range : Limited
Color primaries : BT.709
Transfer characteristics : BT.709
Matrix coefficients : BT.709
Audio #1
ID : 2
Format : AC-3
Format/Info : Audio Coding 3
Mode extension : CM (complete main)
Format settings, Endianness : Big
Codec ID : A_AC3
Duration : 1h 28mn
Bit rate mode : Constant
Bit rate : 192 Kbps
Channel(s) : 2 channels
Channel positions : Front: L R
Sampling rate : 48.0 KHz
Frame rate : 31.250 fps (1536 spf)
Compression mode : Lossy
Stream size : 122 MiB (1%)
Title : MVO
Language : Russian
Default : Yes
Forced : No
Audio #2
ID : 3
Format : AC-3
Format/Info : Audio Coding 3
Mode extension : CM (complete main)
Format settings, Endianness : Big
Codec ID : A_AC3
Duration : 1h 28mn
Bit rate mode : Constant
Bit rate : 448 Kbps
Channel(s) : 2 channels
Channel positions : Front: L R
Sampling rate : 48.0 KHz
Frame rate : 31.250 fps (1536 spf)
Compression mode : Lossy
Stream size : 285 MiB (1%)
Language : English
Default : No
Forced : No
Text
ID : 4
Format : UTF-8
Codec ID : S_TEXT/UTF8
Codec ID/Info : UTF-8 Plain Text
Duration : 1h 24mn
Bit rate : 56 bps
Count of elements : 909
Stream size : 34.8 KiB (0%)
Language : English
Default : No
Forced : No

Скриншоты

Показать сообщения:    

Текущее время: 18-Окт 02:54

Часовой пояс: UTC - 1


Вы не можете начинать темы
Вы не можете отвечать на сообщения
Вы не можете редактировать свои сообщения
Вы не можете удалять свои сообщения
Вы не можете голосовать в опросах
Вы не можете прикреплять файлы к сообщениям
Вы не можете скачивать файлы

!ВНИМАНИЕ!
Сайт не предоставляет электронные версии произведений, а занимается лишь коллекционированием и каталогизацией ссылок, присылаемых и публикуемых на форуме нашими читателями. Если вы являетесь правообладателем какого-либо представленного материала и не желаете, чтобы ссылка на него находилась в нашем каталоге, свяжитесь с нами, и мы незамедлительно удалим ее. Файлы для обмена на трекере предоставлены пользователями сайта, и администрация не несет ответственности за их содержание. Просьба не заливать файлы, защищенные авторскими правами, а также файлы нелегального содержания!