Важное объявление!
У Нас Все раздачи мультитрекерные, при нуле пиров в релизах, можете смело вставать на закачку!
 
Автор Сообщение

HUNTER

Стаж:
4 года 10 месяцев
Сообщений:
65462

Репутация: 101

[+] [-]
Вне форума [Профиль] [ЛС]

5-я волна / The 5th Wave
Страна: США
Жанр: Фантастика, боевик, триллер, приключения
Год выпуска: 2016
Продолжительность: 01:52:22
Перевод: Профессиональный (дублированный)
Cубтитры: Russian (Forced, iTunes), Russian (iTunes), Ukrainian (iTunes), English (iTunes)
Оригинальная аудиодорожка: английский--Режиссер: Дж. Блэйксон / J. Blakeson--В ролях: Хлоя Грейс Морец, Ник Дж. Робинсон, Рон Ливингстон, Мэгги Сифф, Алекс Роу, Мария Белло, Майка Монро, Лив Шрайбер, Закари Артур, Тони Револори...--Описание: Первая волна оставила за собой мглу. От второй успели убежать только самые везучие. Но едва ли можно назвать везучими тех, кто уцелел после третьей. А четвертая волна стерла все человеческие законы, взамен же установила свой, один-единственный: хочешь жить — не верь никому. И вот уже накатывает пятая волна…--Доп. информация: Kinopoisk | IMDB | Sample |--Тип релиза: WEB-DL 720p
Контейнер: MKV
Видео: AVC, 1280x534 at 23.976 fps, 4050 kbps avg
Аудио 1: Russian: AC3, 3/2 (L,C,R,l,r) + LFE ch, 48 kHz, 384 kbps avg |Дубляж, iTunes Russia|
Аудио 2: Ukrainian: AAC, 2/0 (L,R) ch, 48 kHz, 156 kbps avg |Дубляж, iTunes Russia|
Аудио 3: English: AAC, 2/0 (L,R) ch, 48 kHz, 156 kbps avg |Original|
Формат субтитров: softsub (SRT)

MediaInfo

General
Unique ID : 232305683079642582225234522306719991840 (0xAEC4727713384486A114B0A5F8974820)
Complete name : The 5th Wave (2016).mkv
Format : Matroska
Format version : Version 4 / Version 2
File size : 3.73 GiB
Duration : 1h 52mn
Overall bit rate : 4 748 Kbps
Movie name : 5-я волна / The 5th Wave (2016)
Encoded date : UTC 2016-04-04 20:13:24
Writing application : mkvmerge v8.1.0 ('Psychedelic Postcard') 64bit
Writing library : libebml v1.3.1 + libmatroska v1.4.2
Cover : Yes
Attachments : cover.jpg
Video
ID : 1
Format : AVC
Format/Info : Advanced Video Codec
Format profile : Main@L3.1
Format settings, CABAC : No
Format settings, ReFrames : 2 frames
Codec ID : V_MPEG4/ISO/AVC
Duration : 1h 52mn
Bit rate : 4 049 Kbps
Width : 1 280 pixels
Height : 534 pixels
Display aspect ratio : 2.40:1
Frame rate mode : Constant
Frame rate : 23.976 (23976/1000) fps
Color space : YUV
Chroma subsampling : 4:2:0
Bit depth : 8 bits
Scan type : Progressive
Bits/(Pixel*Frame) : 0.247
Stream size : 3.18 GiB (85%)
Title : The 5th Wave (2016)
Language : English
Default : Yes
Forced : No
Color range : Limited
Color primaries : BT.709
Transfer characteristics : BT.709
Matrix coefficients : BT.709
Audio #1
ID : 2
Format : AC-3
Format/Info : Audio Coding 3
Mode extension : CM (complete main)
Format settings, Endianness : Big
Codec ID : A_AC3
Duration : 1h 52mn
Bit rate mode : Constant
Bit rate : 384 Kbps
Channel(s) : 6 channels
Channel positions : Front: L C R, Side: L R, LFE
Sampling rate : 48.0 KHz
Frame rate : 31.250 fps (1536 spf)
Compression mode : Lossy
Stream size : 309 MiB (8%)
Title : Дубляж (iTunes)
Language : Russian
Default : Yes
Forced : No
Audio #2
ID : 3
Format : AAC
Format/Info : Advanced Audio Codec
Format profile : LC
Codec ID : A_AAC
Duration : 1h 52mn
Bit rate : 156 Kbps
Channel(s) : 2 channels
Channel positions : Front: L R
Sampling rate : 48.0 KHz
Frame rate : 46.875 fps (1024 spf)
Compression mode : Lossy
Stream size : 125 MiB (3%)
Title : Дубляж (iTunes)
Language : Ukrainian
Default : No
Forced : No
Audio #3
ID : 4
Format : AAC
Format/Info : Advanced Audio Codec
Format profile : LC
Codec ID : A_AAC
Duration : 1h 52mn
Bit rate : 156 Kbps
Channel(s) : 2 channels
Channel positions : Front: L R
Sampling rate : 48.0 KHz
Frame rate : 46.875 fps (1024 spf)
Compression mode : Lossy
Stream size : 125 MiB (3%)
Title : Original
Language : English
Default : No
Forced : No
Text #1
ID : 5
Format : UTF-8
Codec ID : S_TEXT/UTF8
Codec ID/Info : UTF-8 Plain Text
Duration : 1h 50mn
Bit rate : 0 bps
Count of elements : 3
Stream size : 171 Bytes (0%)
Title : Forced, iTunes
Language : Russian
Default : No
Forced : No
Text #2
ID : 6
Format : UTF-8
Codec ID : S_TEXT/UTF8
Codec ID/Info : UTF-8 Plain Text
Duration : 1h 50mn
Bit rate : 66 bps
Count of elements : 1245
Stream size : 53.8 KiB (0%)
Title : iTunes
Language : Russian
Default : No
Forced : No
Text #3
ID : 7
Format : UTF-8
Codec ID : S_TEXT/UTF8
Codec ID/Info : UTF-8 Plain Text
Duration : 1h 50mn
Bit rate : 66 bps
Count of elements : 1245
Stream size : 54.1 KiB (0%)
Title : iTunes
Language : Ukrainian
Default : No
Forced : No
Text #4
ID : 8
Format : UTF-8
Codec ID : S_TEXT/UTF8
Codec ID/Info : UTF-8 Plain Text
Duration : 1h 50mn
Bit rate : 41 bps
Count of elements : 1226
Stream size : 33.3 KiB (0%)
Title : iTunes
Language : English
Default : No
Forced : No
Menu
00:00:00.000 : en:1
00:03:47.143 : en:2
00:09:05.461 : en:3
00:16:02.002 : en:4
00:20:45.660 : en:5
00:28:43.262 : en:6
00:37:41.425 : en:7
00:45:49.913 : en:8
00:54:19.005 : en:9
00:59:46.791 : en:10
01:06:01.290 : en:11
01:13:05.589 : en:12
01:18:12.437 : en:13
01:25:01.304 : en:14
01:32:20.242 : en:15
01:43:05.095 : en:16

Скриншоты


_________________
Показать сообщения:    

Текущее время: Сегодня 23:26

Часовой пояс: GMT



Вы не можете начинать темы
Вы не можете отвечать на сообщения
Вы не можете редактировать свои сообщения
Вы не можете удалять свои сообщения
Вы не можете голосовать в опросах
Вы не можете прикреплять файлы к сообщениям
Вы не можете скачивать файлы