Важное объявление!
У Нас Все раздачи мультитрекерные, при нуле пиров в релизах, можете смело вставать на закачку!
 
Автор Сообщение

HUNTER

Стаж:
4 года 4 месяца
Сообщений:
56783

Репутация: 101

[+] [-]
Вне форума [Профиль] [ЛС]

49-я параллель / 49th Parallel
Страна: Великобритания
Жанр: триллер, драма, военный
Год выпуска: 1941
Продолжительность: 02:02:09
Перевод: Профессиональный (двухголосый закадровый) - Светла
Cубтитры: английские
Оригинальная аудиодорожка: английский
Режиссер: Майкл Пауэлл / Michael Powell
В ролях: Лесли Говард, Лоуренс Оливье, Ричард Джордж, Эрик Портман, Рэймонд Ловелл, Ниалл МакГиннис, Питер Мур, Джон Чэндос, Бейзил Эпплби, Финлэй Карри
Описание: 1941 год. Восточное побережье Канады. Нацистская лодка «U-37» торпедирует канадский танкер и конвоирующую подлодку. Канадские ВВС и торпедные катера начинают преследование врага. Немецкий капитан решает скрыться от погони в северных широтах бухты Хадсона. Это ему не удается, бомбардировщики береговой охраны прямым попаданием отправляют лодку на дно.
Выжившие шесть подводников, до этого высадившиеся на берег во главе с лейтенантом Хиртом, стараясь не попасть в плен к канадским военным, стремятся достичь границы нейтральных вод США и сдаться в плен. Благодаря радио и газетам, этому плану не дано осуществиться: вся Канада узнала, что вражеские лазутчики проникли на их Родину. Уничтожить нацистов — дело чести каждого верного сына отечества…
Доп. информация:


За дорожку с переводом спасибо milta и TDiTP_
Сэмпл: http://sendfile.su/1040333
Тип релиза: WEB-DL 720p
Контейнер: MKV
Видео: AVC, 962x720, L3.1, 23.976fps, 4138kbps
Аудио 1: Russian: AC3, 48000Hz, 2ch, 192kbps
Аудио 2: English: AC3, 48000Hz, 1ch, 192kbps - DVD
Аудио 3: English: AAC, 48000Hz, 2ch, 122kbps - WEB-DL
Аудио 4: English: AC3, 48000Hz, 1ch, 192kbps - commentary by music and film historian Bruce Eder
Формат субтитров: softsub (SRT)

MediaInfo

Общее
Уникальный идентификатор : 179092863490839210244000046300558061593 (0x86BC07E6979424EAA900E57CD1E0F019)
Полное имя : T:\49th Parallel (WEB-DL 720p).mkv
Формат : Matroska
Версия формата : Version 4 / Version 2
Размер файла : 4,13 Гбайт
Продолжительность : 2 ч. 2 м.
Общий поток : 4836 Кбит/сек
Дата кодирования : UTC 2014-10-26 08:00:53
Программа кодирования : mkvmerge v6.9.1 ('Blue Panther') 64bit built on Apr 18 2014 18:23:38
Библиотека кодирования : libebml v1.3.0 + libmatroska v1.4.1
Видео
Идентификатор : 1
Формат : AVC
Формат/Информация : Advanced Video Codec
Профиль формата : Main@L3.1
Параметр CABAC формата : Нет
Параметр ReFrames формата : 2 кадра
Идентификатор кодека : V_MPEG4/ISO/AVC
Продолжительность : 2 ч. 2 м.
Ширина : 962 пикселя
Высота : 720 пикселей
Соотношение сторон : 4:3
Режим частоты кадров : Постоянный
Частота кадров : 23,976 кадра/сек
Цветовое пространство : YUV
Субдискретизация насыщенности : 4:2:0
Битовая глубина : 8 бит
Тип развёртки : Прогрессивная
Язык : English
Default : Да
Forced : Нет
Основные цвета : BT.709
Характеристики трансфера : BT.709
Коэффициенты матрицы : BT.709
Аудио #1
Идентификатор : 2
Формат : AC-3
Формат/Информация : Audio Coding 3
Расширение режима : CM (complete main)
Параметр Endianness формата : Big
Идентификатор кодека : A_AC3
Продолжительность : 2 ч. 2 м.
Вид битрейта : Постоянный
Битрейт : 192 Кбит/сек
Каналы : 2 канала
Расположение каналов : Front: L R
Частота : 48,0 КГц
Битовая глубина : 16 бит
Метод сжатия : С потерями
Размер потока : 168 Мбайт (4%)
Заголовок : Светла
Язык : Russian
Default : Да
Forced : Нет
Аудио #2
Идентификатор : 3
Формат : AC-3
Формат/Информация : Audio Coding 3
Расширение режима : CM (complete main)
Параметр Endianness формата : Big
Идентификатор кодека : A_AC3
Продолжительность : 2 ч. 2 м.
Вид битрейта : Постоянный
Битрейт : 192 Кбит/сек
Каналы : 1 канал
Расположение каналов : Front: C
Частота : 48,0 КГц
Битовая глубина : 16 бит
Метод сжатия : С потерями
Размер потока : 168 Мбайт (4%)
Заголовок : DVD
Язык : English
Default : Нет
Forced : Нет
Аудио #3
Идентификатор : 4
Формат : AAC
Формат/Информация : Advanced Audio Codec
Профиль формата : LC
Идентификатор кодека : A_AAC
Продолжительность : 2 ч. 2 м.
Каналы : 2 канала
Расположение каналов : Front: L R
Частота : 48,0 КГц
Метод сжатия : С потерями
Заголовок : WEB-DL
Язык : English
Default : Нет
Forced : Нет
Аудио #4
Идентификатор : 5
Формат : AC-3
Формат/Информация : Audio Coding 3
Расширение режима : CM (complete main)
Параметр Endianness формата : Big
Идентификатор кодека : A_AC3
Продолжительность : 2 ч. 2 м.
Вид битрейта : Постоянный
Битрейт : 192 Кбит/сек
Каналы : 1 канал
Расположение каналов : Front: C
Частота : 48,0 КГц
Битовая глубина : 16 бит
Метод сжатия : С потерями
Размер потока : 168 Мбайт (4%)
Заголовок : commentary by music and film historian Bruce Eder
Язык : English
Default : Нет
Forced : Нет
Текст
Идентификатор : 6
Формат : UTF-8
Идентификатор кодека : S_TEXT/UTF8
Идентификатор кодека/Информация : UTF-8 Plain Text
Язык : English
Default : Нет
Forced : Нет
Меню
00:00:00.000 : en:1
00:02:36.000 : en:2
00:08:58.000 : en:3
00:15:06.000 : en:4
00:19:01.000 : en:5
00:25:05.000 : en:6
00:30:22.000 : en:7
00:38:02.000 : en:8
00:44:40.000 : en:9
00:49:43.000 : en:10
00:56:03.000 : en:11
01:00:44.000 : en:12
01:07:54.000 : en:13
01:11:10.000 : en:14
01:16:47.000 : en:15
01:22:33.000 : en:16
01:28:21.000 : en:17
01:33:38.000 : en:18
01:41:49.000 : en:19
01:47:12.000 : en:20
01:55:23.000 : en:21

Скриншоты


_________________
Показать сообщения:    

Текущее время: Сегодня 22:07

Часовой пояс: GMT



Вы не можете начинать темы
Вы не можете отвечать на сообщения
Вы не можете редактировать свои сообщения
Вы не можете удалять свои сообщения
Вы не можете голосовать в опросах
Вы не можете прикреплять файлы к сообщениям
Вы не можете скачивать файлы