Важное объявление!
У Нас Все раздачи мультитрекерные, при нуле пиров в релизах, можете смело вставать на закачку!
 
Автор Сообщение

HUNTER

Стаж:
4 года 4 месяца
Сообщений:
56798

Репутация: 101

[+] [-]
Вне форума [Профиль] [ЛС]

47 ронинов / 47 Ronin
Страна: США
Студия: H2F Entertainment, Mid Atlantic Films, Stuber Productions
Жанр: Фэнтези, боевик, приключения
Год выпуска: 2013
Продолжительность: 01:58:43
Перевод: Профессиональный (дублированный)
Cубтитры: английские, Румынские
Оригинальная аудиодорожка: английский
Режиссер: Карл Ринш / Carl Rinsch
В ролях: Киану Ривз, Ринко Кикучи, Кэри-Хироюки Тагава, Хироюки Санада, Таданобу Асано, Того Игава, Йорик ван Вагенинген, Ко Шибасаки, Рик Жене, Харука Абе, Джин Аканиши
Описание: Вдохновленный одним из самых известных сказаний Японии, фильм «47 ронинов» (47 Ronin) рассказывает эпическую историю героических приключений.После того как коварный военачальник убивает их хозяина и изгоняет их, 47 преданных ронинов, храбрых воинов-самураев, клянутся отомстить и восстановить попранную честь. Изгнанные из своих жилищ и рассеянные по всей стране, они вынуждены принять помощь Кая (Киану Ривз), пришельца-полукровки. Этот отвергнутый всеми изгой теперь превращается в героя, и вместе с самураями герой картины «47 ронинов» преодолевает невероятные испытания, способные принести погибель обычным воинам.

Сэмпл: http://multi-up.com/965994
Тип релиза: BDRip 720p
Контейнер: MKV
Видео: 1280x536,(2.40:1), 23.976 fps, MPEG-4 AVC, ~7 594 kbps avg, 0.463 bit/pixel
Аудио 1: 48 kHz, AC3, 3/2 (L,C,R,l,r) + LFE ch, ~384.00 kbps avg Дублированный (iTunes)
Аудио 2: 48 kHz, DTS, 3/2 (L,C,R,l,r) + LFE ch, ~1509.00 kbps avg Оригинал (английский)

MediaInfo

Complete name : G:HD Video47.Ronin.2013.720p.BluRay.x264.Rus.Eng.Subs-LolHD.mkv
Format : Matroska
Format version : Version 4 / Version 2
File size : 8.03 GiB
Duration : 1h 58mn
Overall bit rate : 9 679 Kbps
Movie name : LolHD
Encoded date : UTC 2014-04-09 19:09:26
Writing application : mkvmerge v6.5.0 ('Isn't she lovely') built on Oct 20 2013 12:50:05
Writing library : libebml v1.3.0 + libmatroska v1.4.1
Video
ID : 1
Format : AVC
Format/Info : Advanced Video Codec
Format profile : High@L4.1
Format settings, CABAC : Yes
Format settings, ReFrames : 12 frames
Codec ID : V_MPEG4/ISO/AVC
Duration : 1h 58mn
Bit rate : 7 594 Kbps
Width : 1 280 pixels
Height : 534 pixels
Display aspect ratio : 2.40:1
Frame rate mode : Constant
Frame rate : 23.976 fps
Color space : YUV
Chroma subsampling : 4:2:0
Bit depth : 8 bits
Scan type : Progressive
Bits/(Pixel*Frame) : 0.463
Stream size : 6.30 GiB (78%)
Title : 47 Ronin 2013
Writing library : x264 core 133 r2334 a3ac64b
Encoding settings : cabac=1 / ref=12 / deblock=1:-3:-3 / analyse=0x3:0x133 / me=umh / subme=11 / psy=1 / psy_rd=1.05:0.00 / mixed_ref=1 / me_range=24 / chroma_me=1 / trellis=2 / 8x8dct=1 / cqm=0 / deadzone=21,11 / fast_pskip=0 / chroma_qp_offset=-2 / threads=6 / lookahead_threads=1 / sliced_threads=0 / nr=0 / decimate=0 / interlaced=0 / bluray_compat=0 / constrained_intra=0 / bframes=9 / b_pyramid=2 / b_adapt=2 / b_bias=0 / direct=3 / weightb=1 / open_gop=0 / weightp=2 / keyint=250 / keyint_min=23 / scenecut=40 / intra_refresh=0 / rc=crf / mbtree=0 / crf=14.6 / qcomp=0.75 / qpmin=0 / qpmax=69 / qpstep=4 / ip_ratio=1.40 / pb_ratio=1.30 / aq=1:0.70
Language : English
Default : Yes
Forced : No
Audio #1
ID : 2
Format : AC-3
Format/Info : Audio Coding 3
Mode extension : CM (complete main)
Format settings, Endianness : Big
Codec ID : A_AC3
Duration : 1h 58mn
Bit rate mode : Constant
Bit rate : 384 Kbps
Channel count : 6 channels
Channel positions : Front: L C R, Side: L R, LFE
Sampling rate : 48.0 KHz
Bit depth : 16 bits
Compression mode : Lossy
Stream size : 326 MiB (4%)
Language : Russian
Default : Yes
Forced : No
Audio #2
ID : 3
Format : DTS
Format/Info : Digital Theater Systems
Mode : 16
Format settings, Endianness : Big
Codec ID : A_DTS
Duration : 1h 58mn
Bit rate mode : Constant
Bit rate : 1 509 Kbps
Channel count : 6 channels
Channel positions : Front: L C R, Side: L R, LFE
Sampling rate : 48.0 KHz
Bit depth : 24 bits
Compression mode : Lossy
Stream size : 1.25 GiB (16%)
Title : English DTS 5.1 1509 Kbps
Language : English
Default : No
Forced : No
Text #1
ID : 4
Format : UTF-8
Codec ID : S_TEXT/UTF8
Codec ID/Info : UTF-8 Plain Text
Language : English
Default : No
Forced : No
Text #2
ID : 5
Format : UTF-8
Codec ID : S_TEXT/UTF8
Codec ID/Info : UTF-8 Plain Text
Language : Romanian
Default : No
Forced : No
Menu
00:00:00.000 : en:00:00:00.000
00:04:27.559 : en:00:04:27.559
00:11:12.088 : en:00:11:12.088
00:16:27.820 : en:00:16:27.820
00:20:11.836 : en:00:20:11.836
00:26:52.319 : en:00:26:52.319
00:31:02.944 : en:00:31:02.944
00:36:10.627 : en:00:36:10.627
00:43:36.614 : en:00:43:36.614
00:50:14.511 : en:00:50:14.511
00:54:59.421 : en:00:54:59.421
00:59:54.049 : en:00:59:54.049
01:09:57.735 : en:01:09:57.735
01:13:59.018 : en:01:13:59.018
01:19:12.247 : en:01:19:12.247
01:24:17.386 : en:01:24:17.386
01:33:00.825 : en:01:33:00.825
01:38:55.555 : en:01:38:55.555
01:44:41.609 : en:01:44:41.609
01:48:38.303 : en:01:48:38.303

Скриншоты


_________________
Показать сообщения:    

Текущее время: Сегодня 21:00

Часовой пояс: GMT



Вы не можете начинать темы
Вы не можете отвечать на сообщения
Вы не можете редактировать свои сообщения
Вы не можете удалять свои сообщения
Вы не можете голосовать в опросах
Вы не можете прикреплять файлы к сообщениям
Вы не можете скачивать файлы