Важное объявление!
У Нас Все раздачи мультитрекерные, при нуле пиров в релизах, можете смело вставать на закачку!
 
Автор Сообщение

HUNTER

Стаж:
4 года 4 месяца
Сообщений:
56733

Репутация: 101

[+] [-]
Вне форума [Профиль] [ЛС]

45 секунд
Выпущено: Россия, кинокомпания "Арт-Экспресс"
Жанр: драма, мелодрама
Год выпуска: 2013
Продолжительность: 01:35:56
Субтитры: нет
Режиссер: Владимир Басов мл., Ольга Басова
В ролях: Ольга Ломоносова, Григорий Антипенко, Алиса Гребенщикова, Андрей Казаков, Светлана Фролова, Александр Константинов, Людмила Гамуряк, Владимир Басов (младший), Олег Кузнецов, Анатолий Кот, Юрий Смирнов, Андрей Вальц, Иван Гордиенко, Людмила Светлова, Дмитрий Котов, Антон Сотников, Алиса Ярославская
Описание: Мелодраматическая история жизни современной городской интеллигенции. 45 секунд - именно то короткое время, за которое изменилась жизнь героев картины. Главная героиня - Татьяна Чернигова - успешная бизнес-леди, бывшая бесстрашная альпинистка, тяжело переживает семейную драму: неудачные попытки родить ребенка. Беда не приходит одна, и на фоне психологических переживаний героини разыгрывается криминально-детективная трагедия, виновницей которой, по мнению свидетелей и участников, становится она...

Автор рипа / записи: fanatus
Качество видео: HDTVRip 720p
Исходник: Запись с телеканала РОССИЯ HD
Контейнер: MKV
Видео: MPEG-4 AVC, 4144 kbps , 1280x720 (16:9), 25.000 fps, 0.180 bit/pixel
Аудио: AC3, 2 ch, 48 kHz, 192 kbps

MediaInfo

General
Unique ID : 199909543263699242688076142021760118256 (0x96652D742E5EBA129ADAA1DAF27DEDF0)
Complete name : F:\45 sekund.2013.x264.HDTVRip.720p.fanatus.mkv
Format : Matroska
Format version : Version 2
File size : 2.91 GiB
Duration : 1h 35mn
Overall bit rate : 4 337 Kbps
Movie name : 45 sekund (2013) - fanatus
Encoded date : UTC 2013-10-23 10:57:02
Writing application : mkvmerge v3.4.0 ('Rapunzel') сборка от May 15 2010 09:38:20
Writing library : libebml v0.8.0 + libmatroska v0.9.0
Video
ID : 1
Format : AVC
Format/Info : Advanced Video Codec
Format profile : High@L4.1
Format settings, CABAC : Yes
Format settings, ReFrames : 9 frames
Codec ID : V_MPEG4/ISO/AVC
Duration : 1h 35mn
Bit rate : 4 144 Kbps
Width : 1 280 pixels
Height : 720 pixels
Display aspect ratio : 16:9
Frame rate : 25.000 fps
Color space : YUV
Chroma subsampling : 4:2:0
Bit depth : 8 bits
Scan type : Progressive
Bits/(Pixel*Frame) : 0.180
Stream size : 2.72 GiB (94%)
Title : 45 sekund (2013) HDTVRip 720p
Writing library : x264 core 138 r2358 9e941d1
Encoding settings : cabac=1 / ref=9 / deblock=1:-2:-2 / analyse=0x3:0x113 / me=umh / subme=10 / psy=1 / psy_rd=1.00:0.10 / mixed_ref=1 / me_range=32 / chroma_me=1 / trellis=2 / 8x8dct=1 / cqm=0 / deadzone=21,11 / fast_pskip=0 / chroma_qp_offset=-3 / threads=16 / lookahead_threads=2 / sliced_threads=0 / nr=0 / decimate=0 / interlaced=0 / bluray_compat=0 / constrained_intra=0 / bframes=9 / b_pyramid=2 / b_adapt=2 / b_bias=0 / direct=3 / weightb=1 / open_gop=0 / weightp=2 / keyint=250 / keyint_min=25 / scenecut=40 / intra_refresh=0 / rc=2pass / mbtree=0 / bitrate=4144 / ratetol=1.0 / qcomp=0.65 / qpmin=0 / qpmax=69 / qpstep=4 / cplxblur=20.0 / qblur=0.5 / ip_ratio=1.40 / pb_ratio=1.30 / aq=1:0.90
Language : Russian
Default : Yes
Forced : No
Matrix coefficients : BT.709-5, BT.1361, IEC 61966-2-4 709, SMPTE RP177
Audio
ID : 2
Format : AC-3
Format/Info : Audio Coding 3
Mode extension : CM (complete main)
Format settings, Endianness : Big
Codec ID : A_AC3
Duration : 1h 35mn
Bit rate mode : Constant
Bit rate : 192 Kbps
Channel(s) : 2 channels
Channel positions : Front: L R
Sampling rate : 48.0 KHz
Bit depth : 16 bits
Compression mode : Lossy
Stream size : 132 MiB (4%)
Title : Original
Language : Russian
Default : Yes
Forced : No

Скриншот c названием фильма

Скриншоты


_________________
Показать сообщения:    

Текущее время: Сегодня 21:00

Часовой пояс: GMT



Вы не можете начинать темы
Вы не можете отвечать на сообщения
Вы не можете редактировать свои сообщения
Вы не можете удалять свои сообщения
Вы не можете голосовать в опросах
Вы не можете прикреплять файлы к сообщениям
Вы не можете скачивать файлы