Ивановский Торрент трекер
Яндекс.Погода
 

[Цитировать]
HUNTER

4 двойки / The Four Deuces
Страна: Израиль, США
Студия: AmeriEuro Pictures Corp
Жанр: боевик, комедия
Год выпуска: 1975
Продолжительность: 01:24:26
Перевод: Профессиональный (многоголосый закадровый) ООО "Петрополь-студия"
Субтитры: нет
Оригинальная аудиодорожка: английский
Режиссер: Уильям Х. Бушнелл / William H. Bushnell
В ролях: Джек Пэланс, Кэрол Линли, Уоррен Берлинджер, Адам Рорк, Джанни Руссо, Х.Б. Хэггерти, Джонни Хаймер, Мартин Коув, Чери Латимер, Э.Дж. Пикер, Карл Уэзерс...
Описание: Действие фильма происходит во времена Великой депрессии, обрушившейся на Америку в 30-е годы прошлого века. Джэк Пэланс играет главаря банды гангстеров. А им, как известно, под горячую руку лучше не попадаться, ведь гангстеры часто неразборчивы в выборе своих жертв.
После «кровавой» попойки выживает один, и вся жизнь его становится похожа на «кровавую неразбериху»…
Доп. информация: Лицензионный DVD из собственной коллекции.
Эксклюзив! До сего момента фильм в Рунете отсутствовал!
Бонусы: Нет.
Меню: Русское, неанимированное, озвученное
Сэмпл: http://sendfile.su/1467185
Тип релиза: DVD5
Контейнер: DVD-Video
Видео: MPEG 2, PAL, 720х576, VBR, 4:3, 6070 Кбит/сек, 25,000 кадров/сек
Аудио: Русский, АС-3, 6 channels, 48.0 kHz, 384 kb/s
Аудио 2: Английский, АС-3, 6 channels, 48.0 kHz, 448 kb/s

MediaInfo

Общее
Полное имя : G:\torrents\The Four Deuces\VTS_02_1.VOB
Формат : MPEG-PS
Размер файла : 1024 Мбайт
Продолжительность : 20 м. 31 с.
Режим общего битрейта : Переменный
Общий поток : 6976 Кбит/сек
Видео
Идентификатор : 224 (0xE0)
Формат : MPEG Video
Версия формата : Version 2
Профиль формата : Main@Main
Настройки формата : BVOP
Параметр BVOP формата : Да
Параметр матрицы формата : По умолчанию
Параметр GOP формата : M=3, N=15
Структура изображения : Frame
Продолжительность : 20 м. 31 с.
Вид битрейта : Переменный
Битрейт : 6070 Кбит/сек
Максимальный битрейт : 8500 Кбит/сек
Ширина : 720 пикселей
Высота : 576 пикселей
Соотношение сторон : 4:3
Частота кадров : 25,000 кадров/сек
Стандарт вещания : PAL
Цветовое пространство : YUV
Субдискретизация насыщенности : 4:2:0
Битовая глубина : 8 бит
Тип развёртки : Чересстрочная
Порядок развёртки : Верхнее поле первое
Метод сжатия : С потерями
Бит/(Пиксели*Кадры) : 0.585
Временной код первого кадра : 00:00:00:00
Оригинал временного кода : Group of pictures header
GOP, открыто/закрыто : Открыто
GOP, открыто/закрыто на первом кадре : Закрыто
Размер потока : 891 Мбайт (87%)
Аудио #1
Идентификатор : 189 (0xBD)-128 (0x80)
Формат : AC-3
Формат/Информация : Audio Coding 3
Режим смешивания : DVD-Video
Продолжительность : 20 м. 30 с.
Вид битрейта : Постоянный
Битрейт : 384 Кбит/сек
Каналы : 6 каналов
Расположение каналов : Front: L C R, Side: L R, LFE
Частота : 48,0 КГц
Частота кадров : 31,250 кадров/сек (1536 SPF)
Битовая глубина : 16 бит
Метод сжатия : С потерями
Размер потока : 56,3 Мбайт (6%)
ServiceKind/String : Complete Main
Аудио #2
Идентификатор : 189 (0xBD)-129 (0x81)
Формат : AC-3
Формат/Информация : Audio Coding 3
Режим смешивания : DVD-Video
Продолжительность : 20 м. 30 с.
Вид битрейта : Постоянный
Битрейт : 384 Кбит/сек
Каналы : 6 каналов
Расположение каналов : Front: L C R, Side: L R, LFE
Частота : 48,0 КГц
Частота кадров : 31,250 кадров/сек (1536 SPF)
Битовая глубина : 16 бит
Метод сжатия : С потерями
Размер потока : 56,3 Мбайт (6%)
ServiceKind/String : Complete Main
Меню

DVDInfo

Title: The Four Deuces
Size: 4.14 Gb ( 4 337 066,00 KBytes ) - DVD-5
Enabled regions: 1, 2, 3, 4, 5, 6, 7, 8
VTS_01 :
Play Length: 00:00:10
Video: PAL 4:3 (720x576) VBR
VTS_02 :
Play Length: 01:24:25
Video: PAL 4:3 (720x576) VBR
Audio:
Russian (Dolby AC3, 6 ch)
English (Dolby AC3, 6 ch)
* Menus Information *
VIDEO_TS Menu
Video:
PAL 4:3 (720x576) VBR
English Language Unit :
Title Menu
VTS_01 Menu
Video:
PAL 4:3 (720x576) VBR
Audio:
Not specified (Dolby AC3, 2 ch)
English Language Unit :
Root Menu
VTS_02 Menu
Video:
PAL 4:3 (720x576) VBR
English Language Unit :
Root Menu

Скриншоты меню

Скриншот с названием фильма



Показать сообщения:    

Текущее время: 19-Янв 10:54

Часовой пояс: UTC ± 0


Вы не можете начинать темы
Вы не можете отвечать на сообщения
Вы не можете редактировать свои сообщения
Вы не можете удалять свои сообщения
Вы не можете голосовать в опросах
Вы не можете прикреплять файлы к сообщениям
Вы не можете скачивать файлы

!ВНИМАНИЕ!
Сайт не предоставляет электронные версии произведений, а занимается лишь коллекционированием и каталогизацией ссылок, присылаемых и публикуемых на форуме нашими читателями. Если вы являетесь правообладателем какого-либо представленного материала и не желаете, чтобы ссылка на него находилась в нашем каталоге, свяжитесь с нами, и мы незамедлительно удалим ее. Файлы для обмена на трекере предоставлены пользователями сайта, и администрация не несет ответственности за их содержание. Просьба не заливать файлы, защищенные авторскими правами, а также файлы нелегального содержания!