Важное объявление!
У Нас Все раздачи мультитрекерные, при нуле пиров в релизах, можете смело вставать на закачку!
 
Автор Сообщение

HUNTER

Стаж:
4 года 4 месяца
Сообщений:
56842

Репутация: 101

[+] [-]
Вне форума [Профиль] [ЛС]

4-8-16-32 Коды притяжения богатства и денег 720р HD / 2-8-16-32 codes of money attraction 720p HD
Страна: Россия
Тематика: Законы успеха
Тип раздаваемого материала: Видеоурок
Продолжительность: 00:32:04
Год выпуска: 2013
Язык: Русский
Перевод: Не требуется
Язык субтитров: Нет
Описание: Данный фильм является инструментом, положительно воздействующим на ВАШЕ электромагнитное поле. В этом фильме заложены КОДЫ подсознания по привлечению ЭНЕРГИИ ДЕНЕГ.
Просматривать от 3-х до 5-ти раз в неделю.

Доп. информация

Общее
Полное имя «4 - 8 - 16 - 32 Коды притяжения энергии денег».mp4
Формат : MPEG-4
Профиль формата : Base Media / Version 2
Идентификатор кодека : mp42
Размер файла : 405 Мбайт
Продолжительность : 32 м.
Режим общего битрейта : Переменный
Общий поток : 1767 Кбит/сек
Дата кодирования : UTC 2013-12-19 00:06:26
Дата пометки : UTC 2013-12-19 00:06:26
gsst : 0
gstd : 1924771
gssd : B4A7DA2E3MH1392745934189257
gshh : r9---sn-4g57kn6l.googlevideo.com
Видео
Идентификатор : 1
Формат : AVC
Формат/Информация : Advanced Video Codec
Профиль формата : High@L3.1
Параметр CABAC формата : Да
Параметр ReFrames формата : 1 кадр
Параметр GOP формата : M=1, N=60
Идентификатор кодека : avc1
Идентификатор кодека/Информация : Advanced Video Coding
Продолжительность : 32 м.
Битрейт : 1573 Кбит/сек
Максимальный битрейт : 6032 Кбит/сек
Ширина : 1280 пикселей
Высота : 720 пикселей
Соотношение сторон : 16:9
Режим частоты кадров : Постоянный
Частота кадров : 29,970 кадров/сек
Цветовое пространство : YUV
Субдискретизация насыщенности : 4:2:0
Битовая глубина : 8 бит
Тип развёртки : Прогрессивная
Бит/(Пиксели*Кадры) : 0.057
Размер потока : 361 Мбайт (89%)
Дата пометки : UTC 2013-12-19 00:13:06
Аудио
Идентификатор : 2
Формат : AAC
Формат/Информация : Advanced Audio Codec
Профиль формата : LC
Идентификатор кодека : 40
Продолжительность : 32 м.
Вид битрейта : Переменный
Битрейт : 192 Кбит/сек
Максимальный битрейт : 202 Кбит/сек
Каналы : 2 канала
Расположение каналов : Front: L R
Частота : 44,1 КГц
Метод сжатия : С потерями
Размер потока : 44,1 Мбайт (11%)
Заголовок : IsoMedia File Produced by Google, 5-11-2011
Дата кодирования : UTC 2013-12-19 00:10:31
Дата пометки : UTC 2013-12-19 00:13:06
Качество: HDRip
Формат: MP4
Видео кодек: VC-1
Аудио кодек: AAC
Видео: AVC, 1280x720, 16:9, 1573 Кбит/сек, 29,970 кадров/сек
Аудио: AAC, 192 Кбит/сек, 44,1 КГц, 2 канала

Скриншоты






_________________
Показать сообщения:    

Текущее время: Сегодня 11:30

Часовой пояс: GMT



Вы не можете начинать темы
Вы не можете отвечать на сообщения
Вы не можете редактировать свои сообщения
Вы не можете удалять свои сообщения
Вы не можете голосовать в опросах
Вы не можете прикреплять файлы к сообщениям
Вы не можете скачивать файлы