Важное объявление!
У Нас Все раздачи мультитрекерные, при нуле пиров в релизах, можете смело вставать на закачку!
Статистика раздачи
Размер:     |    Зарегистрирован:     |    Скачан:     |   
Нет
 
     
 
 
Автор Сообщение

HUNTER

Стаж:
5 лет
Сообщений:
67910

Репутация: 101

[+] [-]
Вне форума [Профиль] [ЛС]

3DS MAX - Дизайн интерьера от А до Я--

  • Год выпуска: 2015
  • Страна: Россия
  • Тематика: 3d моделирование
  • Тип материала: Обучающее видео
  • Продолжительность: ~6 часов
  • Автор: Гузель Зартдинова
  • Язык: Русский-Описание:
    Вы хотите научиться дизайну интерьеров в 3DS MAX c нуля? Всё для этого - здесь. Перед вами новейший подробный практический видеокурс по дизайну интерьеров в 3Ds MAX от А до Я от Гузель Зартдиновой.
    • Понятный пошаговый видеокурс без лишней воды
    • Готовый "золотой" набор настроек для визуализации
    • Готовые 3D-модели, текстуры, материалы V-Ray
    • 100% гарантия Вашего успеха.
    Избавьте себя от:
    • поиска понятного видеокурса без лишней воды. В этом видеокурсе всего за 6 часов вы научитесь всему, что нужно знать.
    • настройки многочисленных опций в 3д макс методом "тыка" (у новичков уходят месяцы). С этим видеокурсом у Вас на это уйдет минута!
    • долгого поиска необходимых 3D-моделей, материалов и текстур для ЭФФЕКТНЫХ визуализаций интерьера в 3ds max. Возьмите всё и сразу - это шикарный бонус к данному видеокурсу.
    • большой траты денег на онлайн-тренинги. Курс имеет, пожалуй, самое выгодное соотношение "цена - результат"!

    Содержание:


    Диск I. Базовый видеокурс по 3ds max для будущего дизайнера интерьера


    • Познакомитесь с интерфейсом 3ds max на примере 2015 версии (подойдет и для более ранних версий 3ds max)
    • Научитесь создавать объекты на примере стола, плинтуса, вазы, напольной плитки
    • Овладеете привязками, сплайнами, узнаем как импортируются сцены
    • Изучите нужные для интерьеров модификаторы 3ds max
    • Научитесь азам создания материалов и текстурирования в 3ds max.

    Диск II. Продвинутый видеокурс по созданию и визуализации интерьера в 3ds max с нуля и до лучших рендеров.


    Теория
    • Вводный урок. Содержание диска с курсом
    • Полигональное моделирование
    • Создаем торшер
    • Внедряем в 3ds max готовый набор профессиональных НАСТРОЕК
    • V-Ray модуль. Скачиваем и устанавливаем.
    • Как поменять Material/Map Browser на более удобный, стандартный вариант?
    • Знакомство с простыми V-Ray материалами
    • Как импортировать чертеж из AutoCAD в 3ds max
    • Сложные VRay материалы
    • Применение материалов по полигонам
    • Откуда можно скачивать некоторые V-Ray материалы. Как их применять?
    • Лампы - как создается самосветящийся материал
    • Бесконечные ячейки материалов - применяйте этот чудо-скрипт!
    • Освещение VRay
    • Солнечный свет и панорама в окне
    • Тюль - Создаем материал
    • Камеры и рендер: Настройки, ракурсы и прочее...
    Практика. Создаем интерьер гостиной с нуля
    • Создаем 3D-планировку помещения
    • Делаем пол и обрамляем проемы
    • Начало наполнения интерьера. Диван
    • Уют - Ковер, текстиль, картины
    • Создание столиков
    • Детали - гардина, текстиль, зелень
    • Создаем камин.Потолок + декор для камина
    • Вид из окна и границы сцены
    • Люстра - начинаем моделирование
    • Люстра - продолжение
    • Создаем плафон люстры
    • Бра
    • Масштабируем и устанавливаем люстры и бра
    • Искусственное освещение
    • Камеры, солнечный свет, рендер
    • Постобработка в Photoshop
    Бонус к первому диску: 1536 готовых текстур для всех элементов интерьера

    Диск III. Бонусы


    • 637 премиальных 3D моделей для всех элементов интерьера
    • 205 самых лучших V-Ray материалов для интерьера
    • Видеоурок: Как пользоваться моделями и материалами V-Ray
    --
  • Качество: PCRec
  • Формат: autorun.exe + доп. материалы
  • Видео кодек: AVC
  • Аудио кодек: AAC
  • Видео: avc1, 1292x720, ~653 Kbps, 15 кадров/сек
  • Аудио: AAC, 44.1 KHz, 2ch, ~92 Kbps
--

MediaInfo

Код: copyText_writeLink('this.parentNode.parentNode.nextSibling.nextSibling');
Код:
General
Complete name               : D:\Мастер-Класс\3DS MAX - Дизайн интерьера от А до Я (2015)\Диск 2\video\05-n.mp4
Format                      : MPEG-4
Format profile              : Base Media / Version 2
Codec ID                    : mp42
File size                   : 47.0 MiB
Duration                    : 8mn 36s
Overall bit rate            : 764 Kbps
Encoded date                : UTC 2015-04-13 14:35:48
Tagged date                 : UTC 2015-04-13 14:35:48
Video
ID                          : 1
Format                      : AVC
Format/Info                 : Advanced Video Codec
Format profile              : High@L4
Format settings, CABAC      : Yes
Format settings, ReFrames   : 4 frames
Codec ID                    : avc1
Codec ID/Info               : Advanced Video Coding
Duration                    : 8mn 36s
Source duration             : 8mn 36s
Bit rate                    : 670 Kbps
Width                       : 1 292 pixels
Height                      : 720 pixels
Display aspect ratio        : 16:9
Frame rate mode             : Constant
Frame rate                  : 15.000 fps
Color space                 : YUV
Chroma subsampling          : 4:2:0
Bit depth                   : 8 bits
Scan type                   : Progressive
Bits/(Pixel*Frame)          : 0.048
Stream size                 : 41.2 MiB (88%)
Source stream size          : 41.2 MiB (88%)
Language                    : English
Encoded date                : UTC 2015-04-13 14:35:48
Tagged date                 : UTC 2015-04-13 14:35:48
Color range                 : Limited
Color primaries             : BT.709
Transfer characteristics    : BT.709
Matrix coefficients         : BT.709
mdhd_Duration               : 516250
Audio
ID                          : 2
Format                      : AAC
Format/Info                 : Advanced Audio Codec
Format profile              : LC
Codec ID                    : 40
Duration                    : 8mn 36s
Source duration             : 8mn 36s
Bit rate mode               : Constant
Bit rate                    : 92.0 Kbps
Channel(s)                  : 2 channels
Channel positions           : Front: L R
Sampling rate               : 44.1 KHz
Compression mode            : Lossy
Stream size                 : 5.66 MiB (12%)
Source stream size          : 5.66 MiB (12%)
Language                    : English
Encoded date                : UTC 2015-04-13 14:35:48
Tagged date                 : UTC 2015-04-13 14:35:48
mdhd_Duration               : 516253
Курс cg incubator Артема Куприяненко

Скриншоты



_________________
Показать сообщения:    

Текущее время: Сегодня 02:50

Часовой пояс: GMT



Вы не можете начинать темы
Вы не можете отвечать на сообщения
Вы не можете редактировать свои сообщения
Вы не можете удалять свои сообщения
Вы не можете голосовать в опросах
Вы не можете прикреплять файлы к сообщениям
Вы не можете скачивать файлы