Важное объявление!
У Нас Все раздачи мультитрекерные, при нуле пиров в релизах, можете смело вставать на закачку!
 
Автор Сообщение

HUNTER

Стаж:
4 года 4 месяца
Сообщений:
56842

Репутация: 101

[+] [-]
Вне форума [Профиль] [ЛС]

36 часов / 36 Hours
Страна: США
Жанр: триллер, военный
Год выпуска: 1965
Продолжительность: 01:54:42
Перевод: Одноголосый закадровый - Вадим Назаров
Cубтитры: английские
Оригинальная аудиодорожка: английский
Режиссер: Джордж Ситон / George Seaton
В ролях: Джеймс Гарнер, Ева Мари Сэйнт, Род Тейлор, Вернер Петерс, Джон Баннер, Расселл Торсон, Алан Напье, Оскар Береги мл., Эд Гилберт, Сиг Руман
Описание: 1944 год. Немцы похищают в Лиссабоне американского майора Джефферсона Пайка. Им известно, что у него есть информация о предстоящей высадке американских войск. Чтобы разговорить его, они прибегают к необычной методике: накачивают его наркотикаи и вывозят в Баварию в бутафорский американский госпиталь, где немецкий майор Гербер в американской форме пытается убедить его, что на дворе 1950 год, война давно закончилась, а он страдает от амнезии. Гербер якобы занимается его лечением, а на деле надеется заслужить доверие Пайка, чтобы тот выложил ему все, что знает…
Доп. информация:


За дорожку с переводом спасибо Dego80
Сэмпл: http://sendfile.su/1030210
Тип релиза: WEB-DL 720p
Контейнер: MKV
Видео: AVC, 1280x532, L3.1, 23.976fps, 4127kbps
Аудио 1: Russian: AC3, 48000Hz, 2ch, 192kbps
Аудио 2: English: AC3, 48000Hz, 1ch, 192kbps - DVD
Аудио 3: English: AAC, 48000Hz, 2ch, 147kbps - WEB-DL
Формат субтитров: softsub (SRT)

MediaInfo

Общее
Уникальный идентификатор : 195957636464356776322520164991926949004 (0x936C1167C7A62686A49C8572A52E548C)
Полное имя : T:\36 Hours (WEB-DL 720p).mkv
Формат : Matroska
Версия формата : Version 4 / Version 2
Размер файла : 3,61 Гбайт
Продолжительность : 1 ч. 54 м.
Общий поток : 4511 Кбит/сек
Дата кодирования : UTC 2014-10-02 05:04:38
Программа кодирования : mkvmerge v6.9.1 ('Blue Panther') 64bit built on Apr 18 2014 18:23:38
Библиотека кодирования : libebml v1.3.0 + libmatroska v1.4.1
Видео
Идентификатор : 1
Формат : AVC
Формат/Информация : Advanced Video Codec
Профиль формата : Main@L3.1
Параметр CABAC формата : Нет
Параметр ReFrames формата : 2 кадра
Идентификатор кодека : V_MPEG4/ISO/AVC
Продолжительность : 1 ч. 54 м.
Ширина : 1280 пикселей
Высота : 532 пикселя
Соотношение сторон : 2,40:1
Режим частоты кадров : Постоянный
Частота кадров : 23,976 кадра/сек
Цветовое пространство : YUV
Субдискретизация насыщенности : 4:2:0
Битовая глубина : 8 бит
Тип развёртки : Прогрессивная
Язык : English
Default : Да
Forced : Нет
Основные цвета : BT.709
Характеристики трансфера : BT.709
Коэффициенты матрицы : BT.709
Аудио #1
Идентификатор : 2
Формат : AC-3
Формат/Информация : Audio Coding 3
Расширение режима : CM (complete main)
Параметр Endianness формата : Big
Идентификатор кодека : A_AC3
Продолжительность : 1 ч. 54 м.
Вид битрейта : Постоянный
Битрейт : 192 Кбит/сек
Каналы : 2 канала
Расположение каналов : Front: L R
Частота : 48,0 КГц
Битовая глубина : 16 бит
Метод сжатия : С потерями
Размер потока : 158 Мбайт (4%)
Заголовок : Вадим Назаров
Язык : Russian
Default : Да
Forced : Нет
Аудио #2
Идентификатор : 3
Формат : AC-3
Формат/Информация : Audio Coding 3
Расширение режима : CM (complete main)
Параметр Endianness формата : Big
Идентификатор кодека : A_AC3
Продолжительность : 1 ч. 54 м.
Вид битрейта : Постоянный
Битрейт : 192 Кбит/сек
Каналы : 1 канал
Расположение каналов : Front: C
Частота : 48,0 КГц
Битовая глубина : 16 бит
Метод сжатия : С потерями
Размер потока : 158 Мбайт (4%)
Заголовок : DVD
Язык : English
Default : Нет
Forced : Нет
Аудио #3
Идентификатор : 4
Формат : AAC
Формат/Информация : Advanced Audio Codec
Профиль формата : LC
Идентификатор кодека : A_AAC
Продолжительность : 1 ч. 54 м.
Каналы : 2 канала
Расположение каналов : Front: L R
Частота : 48,0 КГц
Метод сжатия : С потерями
Заголовок : WEB-DL
Язык : English
Default : Нет
Forced : Нет
Текст
Идентификатор : 5
Формат : UTF-8
Идентификатор кодека : S_TEXT/UTF8
Идентификатор кодека/Информация : UTF-8 Plain Text
Язык : English
Default : Нет
Forced : Нет
Меню
00:00:00.000 : en:Chapter 1.
00:09:38.000 : en:Chapter 2.
00:22:19.000 : en:Chapter 3.
00:29:32.000 : en:Chapter 4.
00:40:39.000 : en:Chapter 5.
00:53:55.000 : en:Chapter 6.
01:01:42.000 : en:Chapter 7.
01:07:56.000 : en:Chapter 8.
01:18:00.000 : en:Chapter 9.
01:30:20.000 : en:Chapter 10.
01:38:16.000 : en:Chapter 11.
01:49:21.000 : en:Chapter 12.

Скриншоты


_________________
Показать сообщения:    

Текущее время: Сегодня 11:23

Часовой пояс: GMT



Вы не можете начинать темы
Вы не можете отвечать на сообщения
Вы не можете редактировать свои сообщения
Вы не можете удалять свои сообщения
Вы не можете голосовать в опросах
Вы не можете прикреплять файлы к сообщениям
Вы не можете скачивать файлы