Важное объявление!
У Нас Все раздачи мультитрекерные, при нуле пиров в релизах, можете смело вставать на закачку!
 
Автор Сообщение

HUNTER

Стаж:
4 года 6 месяцев
Сообщений:
61017

Репутация: 101

[+] [-]
Вне форума [Профиль] [ЛС]

-[size=24300 спартанцев / 300-
Год выпуска: 2006
Страны: США
Жанры: боевик, исторический
Продолжительность: 01:56:38
Перевод: Профессиональный (многоголосый закадровый)
Субтитры: Русские, Английские (встроенные отключаемые)-Режиссер: Зак Снайдер / Zack Snyder-В ролях:
Джерард Батлер / Gerard Butler (Король Леонидас), Лина Хэди / Lena Headey (Королева), Доминик Уэст / Dominic West (Терон), Винсент Ригэн / Vincent Regan (Капитан), Майкл Фассбендер / Michael Fassbender (Стелиос), Эндрю Пливин / Andrew Pleavin (Даксос)-Описание:
События картины повествуют о кровопролитной битве при Фермопилах в 480 году до н.э., когда триста отважных спартанцев во главе со своим царем Леонидом (Джерард Батлер) преградили путь многотысячной армии персидского царя Ксеркса (Родриго Санторо). Несмотря на численный перевес персов, спартанцы держали оборону, проявив нечеловеческое мужество и отвагу. Их бесстрашие и героизм вдохновили всю Грецию на объединение против непобедимого врага, переломив тем самым ход Греко-персидских войн.-Качество: BDRemux
Формат: MKV
Видео кодек: VC-1
Аудио кодек: AC3
Видео: 1920x1080 (16:9), 23.976 fps, VC-1
Аудио #1: A_TRUEHD, 48.0 KHz, 6 ch Оригинал
Аудио #2: AC3, 448 Kbps, 48.0 KHz, 6 ch Профессиональный (полное дублирование)
Аудио #3: AC3, 448 Kbps, 48.0 KHz, 6 ch Профессиональный (двухголосый) П. Гланц и И. Королёва.

Создатели фильма

Сценарий: Зак Снайдер / Zack Snyder, Курт Джонстед / Kurt Johnstad, Майкл Гордон / Michael Gordon
Продюсер: Стив Барнетт / Steve Barnett, Марк Кантон / Mark Canton, Уэсли Коллер / Wesley Coller
Оператор: Ларри Фонг / Larry Fong
Композитор: Тайлер Бэйтс / Tyler Bates
Художник: Джеймс Д. Бисселл / James D. Bissell, Изабель Гуэй / Isabelle Guay, Николас Лепаж / Nicolas Lepage
Монтаж: Уильям Хой / William Hoy

МедиаИнфо

General
Complete name : 300.mkv
Format : Matroska
File size : 15.7 GiB
Duration : 1h 56mn
Overall bit rate : 19.3 Mbps
Movie name : 300 от TorrentIRK
Encoded date : UTC 2013-03-17 03:24:50
Writing application : mkvmerge v6.1.0 ('Old Devil') built on Mar 2 2013 14:32:37
Writing library : libebml v1.3.0 + libmatroska v1.4.0
Video
ID : 1
Format : VC-1
Format profile : AP@L3
Codec ID : WVC1
Codec ID/Hint : Microsoft
Duration : 1h 56mn
Width : 1 920 pixels
Height : 1 080 pixels
Display aspect ratio : 16:9
Frame rate : 23.976 fps
Chroma subsampling : 4:2:0
Bit depth : 8 bits
Scan type : Progressive
Title : 300
Audio #1
ID : 2
Format : TrueHD
Codec ID : A_TRUEHD
Codec ID/Info : Dolby TrueHD
Duration : 1h 56mn
Channel(s) : 6 channels
Sampling rate : 48.0 KHz
Video delay : -42ms
Title : Английский - TrueHD; VBR / CBR; 6 ch
Audio #2
ID : 3
Format : AC-3
Format/Info : Audio Coding 3
Mode extension : CM (complete main)
Codec ID : A_AC3
Duration : 1h 56mn
Bit rate mode : Constant
Bit rate : 448 Kbps
Channel(s) : 6 channels
Channel positions : Front: L C R, Side: L R, LFE
Sampling rate : 48.0 KHz
Bit depth : 16 bits
Stream size : 374 MiB (2%)
Title : Русские - AC3; 448 Kbps; CBR; 6 ch
Language : Russian
Audio #3
ID : 6
Format : AC-3
Format/Info : Audio Coding 3
Mode extension : CM (complete main)
Codec ID : A_AC3
Duration : 1h 56mn
Bit rate mode : Constant
Bit rate : 448 Kbps
Channel(s) : 6 channels
Channel positions : Front: L C R, Side: L R, LFE
Sampling rate : 48.0 KHz
Bit depth : 16 bits
Video delay : 1s 84ms
Stream size : 374 MiB (2%)
Title : П. Гланц и И. Королёва. - AC3; 448 Kbps; CBR; 6 ch
Text #1
ID : 4
Format : PGS
Codec ID : S_HDMV/PGS
Codec ID/Info : The same subtitle format used on BDs/HD-DVDs
Title : Английские
Text #2
ID : 5
Format : PGS
Codec ID : S_HDMV/PGS
Codec ID/Info : The same subtitle format used on BDs/HD-DVDs
Title : Русские
Language : Russian

Скриншоты


_________________
Показать сообщения:    

Текущее время: Сегодня 22:14

Часовой пояс: GMT



Вы не можете начинать темы
Вы не можете отвечать на сообщения
Вы не можете редактировать свои сообщения
Вы не можете удалять свои сообщения
Вы не можете голосовать в опросах
Вы не можете прикреплять файлы к сообщениям
Вы не можете скачивать файлы
Наши партнеры: интернет магазин Ивановского трикотажа textilla.ru