Ивановский Торрент трекер
Яндекс.Погода
 

[Цитировать]
HUNTER

300 спартанцев: Расцвет империи / 300: Rise of an Empire -Год выпуска: 2014
Страна: США
Жанр: боевик, драма, военный
Продолжительность: 01:28:39
Перевод: Дублированный
Субтитры: Нет-В ролях: Салливан Степлтон, Ева Грин, Лина Хиди, Ганс Мэтисон, Родриго Санторо, Каллэн Мулвей, Дэвид Уэнэм, Джек О’Коннелл, Эндрю Тирнан-Режиссёр: Ноам Мурро-После победы над царем Леонидом персидская армия во главе с Ксерксом движется на север. На её пути оказывается флот Афин под руководством адмирала Фемистокла. Силы противников не равны, и Фемистокл вынужден вступить в союз с заклятым врагом афинского государства Спартой. Только объединившись у враждующих полисов-государств есть шанс что-то противопоставить могущественному Ксерксу.-Качество: CAMRip
Формат: AVI
Видео кодек: XviD
Аудио кодек: MP3
Видео: XviD, 720x336, 2069 Кбит/сек, 29.970 кадр/сек
Аудио 1: MP3, 128 Кбит/сек, 2 канала(ов), 48,0 КГц
-

MediaInfo:

Код: copyText_writeLink('this.parentNode.parentNode.nextSibling.nextSibling');
General
Complete name                  : C:\Users\Електростаил\Desktop\300.Spartancev.Rastsvet.Imperii.2014.D.CAMRip.1400MB.avi
Format                         : AVI
Format/Info                    : Audio Video Interleave
File size                      : 1.37 GiB
Duration                       : 1h 28mn
Overall bit rate               : 2 209 Kbps
Writing application            : VirtualDubMod 1.5.10.2 (build 2540/release)
Writing library                : VirtualDubMod build 2540/release
Video
ID                             : 0
Format                         : MPEG-4 Visual
Format profile                 : Advanced Simple@L5
Format settings, BVOP          : Yes
Format settings, QPel          : No
Format settings, GMC           : No warppoints
Format settings, Matrix        : Default (MPEG)
Codec ID                       : XVID
Codec ID/Hint                  : XviD
Duration                       : 1h 28mn
Bit rate                       : 2 069 Kbps
Width                          : 720 pixels
Height                         : 336 pixels
Display aspect ratio           : 2.143
Frame rate                     : 29.970 fps
Color space                    : YUV
Chroma subsampling             : 4:2:0
Bit depth                      : 8 bits
Scan type                      : Progressive
Compression mode               : Lossy
Bits/(Pixel*Frame)             : 0.285
Stream size                    : 1.28 GiB (94%)
Writing library                : XviD 73
Audio
ID                             : 1
Format                         : MPEG Audio
Format version                 : Version 1
Format profile                 : Layer 3
Codec ID                       : 55
Codec ID/Hint                  : MP3
Duration                       : 1h 28mn
Bit rate mode                  : Constant
Bit rate                       : 128 Kbps
Channel(s)                     : 2 channels
Sampling rate                  : 44.1 KHz
Compression mode               : Lossy
Stream size                    : 81.2 MiB (6%)
Alignment                      : Split accross interleaves
Interleave, duration           : 33 ms (1.00 video frame)
Interleave, preload duration   : 500 ms

Скриншоты:



Показать сообщения:    

Текущее время: 13-Дек 05:35

Часовой пояс: UTC ± 0


Вы не можете начинать темы
Вы не можете отвечать на сообщения
Вы не можете редактировать свои сообщения
Вы не можете удалять свои сообщения
Вы не можете голосовать в опросах
Вы не можете прикреплять файлы к сообщениям
Вы не можете скачивать файлы

!ВНИМАНИЕ!
Сайт не предоставляет электронные версии произведений, а занимается лишь коллекционированием и каталогизацией ссылок, присылаемых и публикуемых на форуме нашими читателями. Если вы являетесь правообладателем какого-либо представленного материала и не желаете, чтобы ссылка на него находилась в нашем каталоге, свяжитесь с нами, и мы незамедлительно удалим ее. Файлы для обмена на трекере предоставлены пользователями сайта, и администрация не несет ответственности за их содержание. Просьба не заливать файлы, защищенные авторскими правами, а также файлы нелегального содержания!