Важное объявление!
У Нас Все раздачи мультитрекерные, при нуле пиров в релизах, можете смело вставать на закачку!
 
Автор Сообщение

HUNTER

Стаж:
4 года 7 месяцев
Сообщений:
61590

Репутация: 101

[+] [-]
Вне форума [Профиль] [ЛС]

Blender уроки (Создание hi-tech оружия)
Год выпуска: 2012
Производитель: 2DHD
Сайт производителя: http://2dhd.ru/
Автор: Андрей Росяев
Продолжительность: 5:03:42
Тип раздаваемого материала: Видеоурок
Язык: Русский

Описание: Здесь попробуем создать оружие с 0 (смоделировать оружие, настроить материалы, немного разберём анимацию и многое другое).
Прежде чем качать смотрите результат по ссылке http://www.youtube.com/watch?v=CnZ-4Y29mZw&feature=youtu.be
Все материалы используемые в уроках, прилагаются.
Смотрите онлайн: http://2dhd.ru/blende/modelliruem-hi-tech-vooruzhenie/

Содержание

1. Моделирование.
2. Настройка материалов, развёрток и текстур.
3. Создание текстуры тепловизора и небольшого интерфейса для монитора расположеного на оружии с помощью нодов.
4. Создание эффекта нагревания, дула и датчика тепла а так же симуляция дыма.

MediaInfo

Формат : AVI
Формат/Информация : Audio Video Interleave
Размер файла : 315 Мбайт
Продолжительность : 20 м.
Общий поток : 2143 Кбит/сек
Программа кодирования : Lavf53.29.100
Видео
Идентификатор : 0
Формат : MPEG-4 Visual
Идентификатор кодека : MP42
Идентификатор кодека/Информация : Microsoft MPEG-4 v2 (pre-standard)
Идентификатор кодека/Подсказка : Microsoft
Продолжительность : 20 м.
Битрейт : 2003 Кбит/сек
Ширина : 1680 пикселей
Высота : 1050 пикселей
Соотношение сторон : 1,600
Частота кадров : 25,000 кадров/сек
Метод сжатия : С потерями
Бит/(Пиксели*Кадры) : 0.045
Размер потока : 295 Мбайт (93%)
Аудио
Идентификатор : 1
Формат : MPEG Audio
Версия формата : Version 1
Профиль формата : Layer 3
Режим : Joint stereo
Расширение режима : MS Stereo
Идентификатор кодека : 55
Идентификатор кодека/Подсказка : MP3
Продолжительность : 20 м.
Вид битрейта : Постоянный
Битрейт : 128 Кбит/сек
Каналы : 2 канала
Частота : 44,1 КГц
Метод сжатия : С потерями
Размер потока : 18,8 Мбайт (6%)
Выравнивание : Соединение по промежуткам
Продолжительность промежутка : 26 мс. (0,65 видеокадр)
Время предзагрузки промежутка : 182 мс.
Библиотека кодирования : LAME3.98.4

Скриншоты




_________________
Показать сообщения:    

Текущее время: Сегодня 07:55

Часовой пояс: GMT



Вы не можете начинать темы
Вы не можете отвечать на сообщения
Вы не можете редактировать свои сообщения
Вы не можете удалять свои сообщения
Вы не можете голосовать в опросах
Вы не можете прикреплять файлы к сообщениям
Вы не можете скачивать файлы
Наши партнеры: интернет магазин Ивановского трикотажа textilla.ru