Ивановский Торрент трекер
Яндекс.Погода
Статистика раздачи
Размер:  7.34 GB   |    Зарегистрирован:  3 года 1 месяц   |    Скачан:  0 раз

Полного источника не было: Никогда

 
     
 
 
 

[Цитировать]
HUNTER

Blender уроки (Создание hi-tech оружия)
Год выпуска: 2012
Производитель: 2DHD
Сайт производителя: http://2dhd.ru/
Автор: Андрей Росяев
Продолжительность: 5:03:42
Тип раздаваемого материала: Видеоурок
Язык: Русский

Описание: Здесь попробуем создать оружие с 0 (смоделировать оружие, настроить материалы, немного разберём анимацию и многое другое).
Прежде чем качать смотрите результат по ссылке http://www.youtube.com/watch?v=CnZ-4Y29mZw&feature=youtu.be
Все материалы используемые в уроках, прилагаются.
Смотрите онлайн: http://2dhd.ru/blende/modelliruem-hi-tech-vooruzhenie/

Содержание

1. Моделирование.
2. Настройка материалов, развёрток и текстур.
3. Создание текстуры тепловизора и небольшого интерфейса для монитора расположеного на оружии с помощью нодов.
4. Создание эффекта нагревания, дула и датчика тепла а так же симуляция дыма.

MediaInfo

Формат : AVI
Формат/Информация : Audio Video Interleave
Размер файла : 315 Мбайт
Продолжительность : 20 м.
Общий поток : 2143 Кбит/сек
Программа кодирования : Lavf53.29.100
Видео
Идентификатор : 0
Формат : MPEG-4 Visual
Идентификатор кодека : MP42
Идентификатор кодека/Информация : Microsoft MPEG-4 v2 (pre-standard)
Идентификатор кодека/Подсказка : Microsoft
Продолжительность : 20 м.
Битрейт : 2003 Кбит/сек
Ширина : 1680 пикселей
Высота : 1050 пикселей
Соотношение сторон : 1,600
Частота кадров : 25,000 кадров/сек
Метод сжатия : С потерями
Бит/(Пиксели*Кадры) : 0.045
Размер потока : 295 Мбайт (93%)
Аудио
Идентификатор : 1
Формат : MPEG Audio
Версия формата : Version 1
Профиль формата : Layer 3
Режим : Joint stereo
Расширение режима : MS Stereo
Идентификатор кодека : 55
Идентификатор кодека/Подсказка : MP3
Продолжительность : 20 м.
Вид битрейта : Постоянный
Битрейт : 128 Кбит/сек
Каналы : 2 канала
Частота : 44,1 КГц
Метод сжатия : С потерями
Размер потока : 18,8 Мбайт (6%)
Выравнивание : Соединение по промежуткам
Продолжительность промежутка : 26 мс. (0,65 видеокадр)
Время предзагрузки промежутка : 182 мс.
Библиотека кодирования : LAME3.98.4

Скриншоты



[iv-torrents.ru].t35044.torrent
Торрент: Зарегистрирован [ 2014-10-15 16:56 ] · 453975B7024AFA647F796766E4BCA3C81FEF30A5

Скачать .torrent

Скачать

21 KB

Статус: проверено
Скачан: 0 раз
Размер: 7.34 GB
terms.php
Похожие темы


Показать сообщения:    

Текущее время: 14-Дек 13:29

Часовой пояс: UTC ± 0


Вы не можете начинать темы
Вы не можете отвечать на сообщения
Вы не можете редактировать свои сообщения
Вы не можете удалять свои сообщения
Вы не можете голосовать в опросах
Вы не можете прикреплять файлы к сообщениям
Вы можете скачивать файлы

!ВНИМАНИЕ!
Сайт не предоставляет электронные версии произведений, а занимается лишь коллекционированием и каталогизацией ссылок, присылаемых и публикуемых на форуме нашими читателями. Если вы являетесь правообладателем какого-либо представленного материала и не желаете, чтобы ссылка на него находилась в нашем каталоге, свяжитесь с нами, и мы незамедлительно удалим ее. Файлы для обмена на трекере предоставлены пользователями сайта, и администрация не несет ответственности за их содержание. Просьба не заливать файлы, защищенные авторскими правами, а также файлы нелегального содержания!